  0
SECTION
  2
HEADER
  9
$ACADVER
  1
AC1015
  9
$ACADMAINTVER
 70
     6
  9
$DWGCODEPAGE
  3
ANSI_1252
  9
$INSBASE
 10
0.0
 20
0.0
 30
0.0
  9
$EXTMIN
 10
0.0
 20
0.0
 30
0.0
  9
$EXTMAX
 10
296.9999999999999
 20
210.0
 30
0.0
  9
$LIMMIN
 10
0.0
 20
0.0
  9
$LIMMAX
 10
12.0
 20
9.0
  9
$ORTHOMODE
 70
     0
  9
$REGENMODE
 70
     1
  9
$FILLMODE
 70
     1
  9
$QTEXTMODE
 70
     0
  9
$MIRRTEXT
 70
     1
  9
$LTSCALE
 40
1.0
  9
$ATTMODE
 70
     1
  9
$TEXTSIZE
 40
0.2
  9
$TRACEWID
 40
0.05
  9
$TEXTSTYLE
  7
Standard
  9
$CLAYER
  8
0
  9
$CELTYPE
  6
ByLayer
  9
$CECOLOR
 62
   256
  9
$CELTSCALE
 40
1.0
  9
$DISPSILH
 70
     0
  9
$DIMSCALE
 40
1.0
  9
$DIMASZ
 40
0.18
  9
$DIMEXO
 40
0.0625
  9
$DIMDLI
 40
0.38
  9
$DIMRND
 40
0.0
  9
$DIMDLE
 40
0.0
  9
$DIMEXE
 40
0.18
  9
$DIMTP
 40
0.0
  9
$DIMTM
 40
0.0
  9
$DIMTXT
 40
0.18
  9
$DIMCEN
 40
0.09
  9
$DIMTSZ
 40
0.0
  9
$DIMTOL
 70
     0
  9
$DIMLIM
 70
     0
  9
$DIMTIH
 70
     1
  9
$DIMTOH
 70
     1
  9
$DIMSE1
 70
     0
  9
$DIMSE2
 70
     0
  9
$DIMTAD
 70
     0
  9
$DIMZIN
 70
     0
  9
$DIMBLK
  1

  9
$DIMASO
 70
     1
  9
$DIMSHO
 70
     1
  9
$DIMPOST
  1

  9
$DIMAPOST
  1

  9
$DIMALT
 70
     0
  9
$DIMALTD
 70
     2
  9
$DIMALTF
 40
25.4
  9
$DIMLFAC
 40
1.0
  9
$DIMTOFL
 70
     0
  9
$DIMTVP
 40
0.0
  9
$DIMTIX
 70
     0
  9
$DIMSOXD
 70
     0
  9
$DIMSAH
 70
     0
  9
$DIMBLK1
  1

  9
$DIMBLK2
  1

  9
$DIMSTYLE
  2
Standard
  9
$DIMCLRD
 70
     0
  9
$DIMCLRE
 70
     0
  9
$DIMCLRT
 70
     0
  9
$DIMTFAC
 40
1.0
  9
$DIMGAP
 40
0.09
  9
$DIMJUST
 70
     0
  9
$DIMSD1
 70
     0
  9
$DIMSD2
 70
     0
  9
$DIMTOLJ
 70
     1
  9
$DIMTZIN
 70
     0
  9
$DIMALTZ
 70
     0
  9
$DIMALTTZ
 70
     0
  9
$DIMUPT
 70
     0
  9
$DIMDEC
 70
     4
  9
$DIMTDEC
 70
     4
  9
$DIMALTU
 70
     2
  9
$DIMALTTD
 70
     2
  9
$DIMTXSTY
  7
Standard
  9
$DIMAUNIT
 70
     0
  9
$DIMADEC
 70
     0
  9
$DIMALTRND
 40
0.0
  9
$DIMAZIN
 70
     0
  9
$DIMDSEP
 70
    46
  9
$DIMATFIT
 70
     3
  9
$DIMFRAC
 70
     0
  9
$DIMLDRBLK
  1

  9
$DIMLUNIT
 70
     2
  9
$DIMLWD
 70
    -2
  9
$DIMLWE
 70
    -2
  9
$DIMTMOVE
 70
     0
  9
$LUNITS
 70
     2
  9
$LUPREC
 70
     4
  9
$SKETCHINC
 40
0.1
  9
$FILLETRAD
 40
0.5
  9
$AUNITS
 70
     0
  9
$AUPREC
 70
     0
  9
$MENU
  1
.
  9
$ELEVATION
 40
0.0
  9
$PELEVATION
 40
0.0
  9
$THICKNESS
 40
0.0
  9
$LIMCHECK
 70
     0
  9
$CHAMFERA
 40
0.5
  9
$CHAMFERB
 40
0.5
  9
$CHAMFERC
 40
1.0
  9
$CHAMFERD
 40
0.0
  9
$SKPOLY
 70
     0
  9
$TDCREATE
 40
2456997.616620139
  9
$TDUCREATE
 40
2456997.574953472
  9
$TDUPDATE
 40
2456997.616620509
  9
$TDUUPDATE
 40
2456997.574953842
  9
$TDINDWG
 40
0.0000000116
  9
$TDUSRTIMER
 40
0.0000000116
  9
$USRTIMER
 70
     1
  9
$ANGBASE
 50
0.0
  9
$ANGDIR
 70
     0
  9
$PDMODE
 70
     0
  9
$PDSIZE
 40
0.0
  9
$PLINEWID
 40
0.0
  9
$SPLFRAME
 70
     0
  9
$SPLINETYPE
 70
     6
  9
$SPLINESEGS
 70
     8
  9
$HANDSEED
  5
7C0
  9
$SURFTAB1
 70
     6
  9
$SURFTAB2
 70
     6
  9
$SURFTYPE
 70
     6
  9
$SURFU
 70
     6
  9
$SURFV
 70
     6
  9
$UCSBASE
  2

  9
$UCSNAME
  2

  9
$UCSORG
 10
0.0
 20
0.0
 30
0.0
  9
$UCSXDIR
 10
1.0
 20
0.0
 30
0.0
  9
$UCSYDIR
 10
0.0
 20
1.0
 30
0.0
  9
$UCSORTHOREF
  2

  9
$UCSORTHOVIEW
 70
     0
  9
$UCSORGTOP
 10
0.0
 20
0.0
 30
0.0
  9
$UCSORGBOTTOM
 10
0.0
 20
0.0
 30
0.0
  9
$UCSORGLEFT
 10
0.0
 20
0.0
 30
0.0
  9
$UCSORGRIGHT
 10
0.0
 20
0.0
 30
0.0
  9
$UCSORGFRONT
 10
0.0
 20
0.0
 30
0.0
  9
$UCSORGBACK
 10
0.0
 20
0.0
 30
0.0
  9
$PUCSBASE
  2

  9
$PUCSNAME
  2

  9
$PUCSORG
 10
0.0
 20
0.0
 30
0.0
  9
$PUCSXDIR
 10
1.0
 20
0.0
 30
0.0
  9
$PUCSYDIR
 10
0.0
 20
1.0
 30
0.0
  9
$PUCSORTHOREF
  2

  9
$PUCSORTHOVIEW
 70
     0
  9
$PUCSORGTOP
 10
0.0
 20
0.0
 30
0.0
  9
$PUCSORGBOTTOM
 10
0.0
 20
0.0
 30
0.0
  9
$PUCSORGLEFT
 10
0.0
 20
0.0
 30
0.0
  9
$PUCSORGRIGHT
 10
0.0
 20
0.0
 30
0.0
  9
$PUCSORGFRONT
 10
0.0
 20
0.0
 30
0.0
  9
$PUCSORGBACK
 10
0.0
 20
0.0
 30
0.0
  9
$USERI1
 70
     0
  9
$USERI2
 70
     0
  9
$USERI3
 70
     0
  9
$USERI4
 70
     0
  9
$USERI5
 70
     0
  9
$USERR1
 40
18.1
  9
$USERR2
 40
0.0
  9
$USERR3
 40
0.0
  9
$USERR4
 40
0.0
  9
$USERR5
 40
0.0
  9
$WORLDVIEW
 70
     1
  9
$SHADEDGE
 70
     3
  9
$SHADEDIF
 70
    70
  9
$TILEMODE
 70
     1
  9
$MAXACTVP
 70
    64
  9
$PINSBASE
 10
0.0
 20
0.0
 30
0.0
  9
$PLIMCHECK
 70
     0
  9
$PEXTMIN
 10
1.00000000000000E+20
 20
1.00000000000000E+20
 30
1.00000000000000E+20
  9
$PEXTMAX
 10
-1.00000000000000E+20
 20
-1.00000000000000E+20
 30
-1.00000000000000E+20
  9
$PLIMMIN
 10
0.0
 20
0.0
  9
$PLIMMAX
 10
12.0
 20
9.0
  9
$UNITMODE
 70
     0
  9
$VISRETAIN
 70
     1
  9
$PLINEGEN
 70
     0
  9
$PSLTSCALE
 70
     1
  9
$TREEDEPTH
 70
  3020
  9
$CMLSTYLE
  2
Standard
  9
$CMLJUST
 70
     0
  9
$CMLSCALE
 40
1.0
  9
$PROXYGRAPHICS
 70
     1
  9
$MEASUREMENT
 70
     1
  9
$CELWEIGHT
370
    -1
  9
$ENDCAPS
280
     0
  9
$JOINSTYLE
280
     0
  9
$LWDISPLAY
290
     0
  9
$INSUNITS
 70
     4
  9
$HYPERLINKBASE
  1

  9
$STYLESHEET
  1

  9
$XEDIT
290
     1
  9
$CEPSNTYPE
380
     0
  9
$PSTYLEMODE
290
     1
  9
$FINGERPRINTGUID
  2
{2DF53B5D-9A8E-47E8-BE92-9B0318F13CC2}
  9
$VERSIONGUID
  2
{FAEB1C32-E019-11D5-929B-00C0DF256EC4}
  9
$EXTNAMES
290
     1
  9
$PSVPSCALE
 40
0.0
  9
$OLESTARTUP
290
     0
  0
ENDSEC
  0
SECTION
  2
CLASSES
  0
CLASS
  1
ACDBDICTIONARYWDFLT
  2
AcDbDictionaryWithDefault
  3
ObjectDBX Classes
 90
        0
280
     0
281
     0
  0
CLASS
  1
VISUALSTYLE
  2
AcDbVisualStyle
  3
ObjectDBX Classes
 90
     4095
280
     0
281
     0
  0
CLASS
  1
MATERIAL
  2
AcDbMaterial
  3
ObjectDBX Classes
 90
     1153
280
     0
281
     0
  0
CLASS
  1
DICTIONARYVAR
  2
AcDbDictionaryVar
  3
ObjectDBX Classes
 90
        0
280
     0
281
     0
  0
CLASS
  1
ACDBPLACEHOLDER
  2
AcDbPlaceHolder
  3
ObjectDBX Classes
 90
        0
280
     0
281
     0
  0
CLASS
  1
LAYOUT
  2
AcDbLayout
  3
ObjectDBX Classes
 90
        0
280
     0
281
     0
  0
ENDSEC
  0
SECTION
  2
TABLES
  0
TABLE
  2
VPORT
  5
8
330
0
100
AcDbSymbolTable
 70
     1
  0
VPORT
  5
29
330
8
100
AcDbSymbolTableRecord
100
AcDbViewportTableRecord
  2
*Active
 70
     0
 10
0.0
 20
0.0
 11
1.0
 21
1.0
 12
148.4999999999999
 22
105.0
 13
0.0
 23
0.0
 14
0.5
 24
0.5
 15
0.5
 25
0.5
 16
0.0
 26
0.0
 36
1.0
 17
0.0
 27
0.0
 37
0.0
 40
231.0
 41
1.60267857142857
 42
50.0
 43
0.0
 44
0.0
 50
0.0
 51
0.0
 71
     0
 72
   100
 73
     1
 74
     3
 75
     0
 76
     0
 77
     0
 78
     0
281
     0
 65
     1
110
0.0
120
0.0
130
0.0
111
1.0
121
0.0
131
0.0
112
0.0
122
1.0
132
0.0
 79
     0
146
0.0
  0
ENDTAB
  0
TABLE
  2
LTYPE
  5
5
330
0
100
AcDbSymbolTable
 70
    10
  0
LTYPE
  5
14
330
5
100
AcDbSymbolTableRecord
100
AcDbLinetypeTableRecord
  2
ByBlock
 70
     0
  3

 72
    65
 73
     0
 40
0.0
  0
LTYPE
  5
15
330
5
100
AcDbSymbolTableRecord
100
AcDbLinetypeTableRecord
  2
ByLayer
 70
     0
  3

 72
    65
 73
     0
 40
0.0
  0
LTYPE
  5
16
330
5
100
AcDbSymbolTableRecord
100
AcDbLinetypeTableRecord
  2
Continuous
 70
     0
  3
Solid line
 72
    65
 73
     0
 40
0.0
  0
LTYPE
  5
3F
330
5
100
AcDbSymbolTableRecord
100
AcDbLinetypeTableRecord
  2
DASHED
 70
     0
  3
Dashed
 72
    65
 73
     2
 40
15.0
 49
7.0
 74
     0
 49
-8.0
 74
     0
  0
LTYPE
  5
40
330
5
100
AcDbSymbolTableRecord
100
AcDbLinetypeTableRecord
  2
DOTTED
 70
     0
  3
Dotted
 72
    65
 73
     2
 40
1.0
 49
0.0
 74
     0
 49
-1.0
 74
     0
  0
LTYPE
  5
41
330
5
100
AcDbSymbolTableRecord
100
AcDbLinetypeTableRecord
  2
DOT_CENTER
 70
     0
  3
Dot_Center
 72
    65
 73
     4
 40
14.0
 49
12.0
 74
     0
 49
-1.0
 74
     0
 49
0.0
 74
     0
 49
-1.0
 74
     0
  0
LTYPE
  5
42
330
5
100
AcDbSymbolTableRecord
100
AcDbLinetypeTableRecord
  2
LONG_DASHED
 70
     0
  3
Long_Dashed
 72
    65
 73
     2
 40
15.0
 49
10.0
 74
     0
 49
-5.0
 74
     0
  0
LTYPE
  5
43
330
5
100
AcDbSymbolTableRecord
100
AcDbLinetypeTableRecord
  2
DASH_CENTER
 70
     0
  3
Dash_Center
 72
    65
 73
     4
 40
14.0
 49
11.0
 74
     0
 49
-1.0
 74
     0
 49
1.0
 74
     0
 49
-1.0
 74
     0
  0
LTYPE
  5
44
330
5
100
AcDbSymbolTableRecord
100
AcDbLinetypeTableRecord
  2
PHANTOM
 70
     0
  3
Phantom
 72
    65
 73
     6
 40
13.0
 49
10.0
 74
     0
 49
-1.0
 74
     0
 49
0.0
 74
     0
 49
-1.0
 74
     0
 49
0.0
 74
     0
 49
-1.0
 74
     0
  0
LTYPE
  5
45
330
5
100
AcDbSymbolTableRecord
100
AcDbLinetypeTableRecord
  2
CENTER_DASH_DASH
 70
     0
  3
Center_Dash_Dash
 72
    65
 73
     6
 40
14.0
 49
9.0
 74
     0
 49
-1.0
 74
     0
 49
1.0
 74
     0
 49
-1.0
 74
     0
 49
1.0
 74
     0
 49
-1.0
 74
     0
  0
LTYPE
  5
46
330
5
100
AcDbSymbolTableRecord
100
AcDbLinetypeTableRecord
  2
CHAIN
 70
     0
  3
CHAIN
 72
    65
 73
     4
 40
4.0
 49
1.0
 74
     0
 49
-1.0
 74
     0
 49
1.0
 74
     0
 49
-1.0
 74
     0
  0
LTYPE
  5
47
330
5
100
AcDbSymbolTableRecord
100
AcDbLinetypeTableRecord
  2
DASHED_SPACE
 70
     0
  3
DASHED_SPACE
 72
    65
 73
     2
 40
2.0
 49
1.0
 74
     0
 49
-1.0
 74
     0
  0
ENDTAB
  0
TABLE
  2
LAYER
  5
2
330
0
100
AcDbSymbolTable
 70
     7
  0
LAYER
  5
10
330
2
100
AcDbSymbolTableRecord
100
AcDbLayerTableRecord
  2
0
 70
     0
 62
     7
  6
Continuous
370
    -3
390
F
  0
LAYER
  5
48
330
2
100
AcDbSymbolTableRecord
100
AcDbLayerTableRecord
  2
1
 70
     0
 62
     7
  6
Continuous
370
    -3
390
F
  0
LAYER
  5
49
330
2
100
AcDbSymbolTableRecord
100
AcDbLayerTableRecord
  2
Bemaßungen_TC_020513_DIN_
 70
     0
 62
     7
  6
Continuous
370
    -3
390
F
  0
LAYER
  5
4A
330
2
100
AcDbSymbolTableRecord
100
AcDbLayerTableRecord
  2
Mittellinie_TC_020513_DIN_
 70
     0
 62
     7
  6
Continuous
370
    -3
390
F
  0
LAYER
  5
4B
330
2
100
AcDbSymbolTableRecord
100
AcDbLayerTableRecord
  2
Mittelpunktmarkierung_TC_020513_DIN_
 70
     0
 62
     7
  6
Continuous
370
    -3
390
F
  0
LAYER
  5
4C
330
2
100
AcDbSymbolTableRecord
100
AcDbLayerTableRecord
  2
Sichtbare_Kanten_TC_020513_DIN_
 70
     0
 62
     7
  6
Continuous
370
    -3
390
F
  0
LAYER
  5
4D
330
2
100
AcDbSymbolTableRecord
100
AcDbLayerTableRecord
  2
Stich_1-Linien_TC_020513_DIN_
 70
     0
 62
     7
  6
Continuous
370
    -3
390
F
  0
ENDTAB
  0
TABLE
  2
STYLE
  5
3
330
0
100
AcDbSymbolTable
 70
     4
  0
STYLE
  5
11
330
3
100
AcDbSymbolTableRecord
100
AcDbTextStyleTableRecord
  2
Standard
 70
     0
 40
0.0
 41
1.0
 50
0.0
 71
     0
 42
0.2
  3
txt
  4

  0
STYLE
  5
96
330
3
100
AcDbSymbolTableRecord
100
AcDbTextStyleTableRecord
  2
CONVERTER_11
 70
     0
 40
0.0
 41
0.9
 50
0.0
 71
     0
 42
0.2
  3
txt.shx
  4

  0
STYLE
  5
99
330
3
100
AcDbSymbolTableRecord
100
AcDbTextStyleTableRecord
  2
CONVERTER_12
 70
     0
 40
0.0
 41
1.035
 50
0.0
 71
     0
 42
0.2
  3
txt.shx
  4

  0
STYLE
  5
72E
330
3
100
AcDbSymbolTableRecord
100
AcDbTextStyleTableRecord
  2
CONVERTER_13
 70
     0
 40
0.0
 41
0.95
 50
0.0
 71
     0
 42
0.2
  3
simplex.shx
  4

  0
ENDTAB
  0
TABLE
  2
VIEW
  5
6
330
0
100
AcDbSymbolTable
 70
     0
  0
ENDTAB
  0
TABLE
  2
UCS
  5
7
330
0
100
AcDbSymbolTable
 70
     0
  0
ENDTAB
  0
TABLE
  2
APPID
  5
9
330
0
100
AcDbSymbolTable
 70
     1
  0
APPID
  5
12
330
9
100
AcDbSymbolTableRecord
100
AcDbRegAppTableRecord
  2
ACAD
 70
     0
  0
ENDTAB
  0
TABLE
  2
DIMSTYLE
  5
A
330
0
100
AcDbSymbolTable
 70
    10
100
AcDbDimStyleTable
  0
DIMSTYLE
105
27
330
A
100
AcDbSymbolTableRecord
100
AcDbDimStyleTableRecord
  2
Standard
 70
     0
178
     0
340
11
  0
DIMSTYLE
105
739
102
{ACAD_REACTORS
330
73A
102
}
330
A
100
AcDbSymbolTableRecord
100
AcDbDimStyleTableRecord
  2
ME10_DIM_10
 70
     0
 41
3.0
 42
0.5
 44
1.0
 73
     0
 74
     0
 77
     1
 78
     8
140
3.0
147
2.0
172
     1
173
     1
174
     1
175
     1
176
     2
177
     2
271
     2
178
     4
271
     2
340
72E
  0
DIMSTYLE
105
746
102
{ACAD_REACTORS
330
747
102
}
330
A
100
AcDbSymbolTableRecord
100
AcDbDimStyleTableRecord
  2
ME10_DIM_11
 70
     0
 41
3.0
 42
0.5
 44
1.0
 73
     0
 74
     0
 77
     1
 78
     8
140
3.0
147
2.0
172
     1
173
     1
174
     1
175
     1
176
     2
177
     2
271
     2
178
     4
271
     2
340
72E
  0
DIMSTYLE
105
751
102
{ACAD_REACTORS
330
752
102
}
330
A
100
AcDbSymbolTableRecord
100
AcDbDimStyleTableRecord
  2
ME10_DIM_12
 70
     0
 41
3.0
 42
0.5
 44
1.0
 73
     0
 74
     0
 77
     1
 78
     8
140
3.0
147
2.0
172
     1
173
     1
174
     1
175
     1
176
     2
177
     2
271
     2
178
     4
271
     2
340
72E
  0
DIMSTYLE
105
75C
102
{ACAD_REACTORS
330
75D
102
}
330
A
100
AcDbSymbolTableRecord
100
AcDbDimStyleTableRecord
  2
ME10_DIM_13
 70
     0
 41
3.0
 42
0.5
 44
1.0
 73
     0
 74
     0
 77
     1
 78
     8
140
3.0
147
2.0
172
     1
173
     1
174
     1
175
     1
176
     2
177
     2
271
     2
178
     4
271
     2
340
72E
  0
DIMSTYLE
105
767
102
{ACAD_REACTORS
330
768
102
}
330
A
100
AcDbSymbolTableRecord
100
AcDbDimStyleTableRecord
  2
ME10_DIM_14
 70
     0
 41
3.0
 42
0.5
 44
1.0
 73
     0
 74
     0
 77
     1
 78
     8
140
3.0
147
2.0
172
     1
173
     1
174
     1
175
     1
176
     2
177
     2
271
     2
178
     4
271
     2
340
72E
  0
DIMSTYLE
105
772
102
{ACAD_REACTORS
330
773
102
}
330
A
100
AcDbSymbolTableRecord
100
AcDbDimStyleTableRecord
  2
ME10_DIM_15
 70
     0
 41
3.0
 42
0.5
 44
1.0
 73
     0
 74
     0
 77
     1
 78
     8
140
3.0
147
2.0
172
     1
173
     1
174
     1
175
     1
176
     2
177
     2
271
     2
178
     4
271
     2
340
72E
  0
DIMSTYLE
105
77D
102
{ACAD_REACTORS
330
77E
102
}
330
A
100
AcDbSymbolTableRecord
100
AcDbDimStyleTableRecord
  2
ME10_DIM_16
 70
     0
 41
3.0
 42
0.5
 44
1.0
 73
     0
 74
     0
 77
     1
 78
     8
140
3.0
147
2.0
172
     1
173
     1
174
     1
175
     1
176
     2
177
     2
271
     2
178
     4
271
     2
340
72E
  0
DIMSTYLE
105
788
102
{ACAD_REACTORS
330
789
102
}
330
A
100
AcDbSymbolTableRecord
100
AcDbDimStyleTableRecord
  2
ME10_DIM_17
 70
     0
 41
3.0
 42
0.5
 44
1.0
 73
     0
 74
     0
 77
     1
 78
     8
140
3.0
147
2.0
172
     1
173
     1
174
     1
175
     1
176
     2
177
     2
271
     2
178
     4
271
     2
340
72E
  0
DIMSTYLE
105
793
102
{ACAD_REACTORS
330
794
102
}
330
A
100
AcDbSymbolTableRecord
100
AcDbDimStyleTableRecord
  2
ME10_DIM_18
 70
     0
 41
3.0
 42
0.5
 44
1.0
 73
     0
 74
     0
 77
     1
 78
     8
140
3.0
147
2.0
172
     1
173
     1
174
     1
175
     1
176
     2
177
     2
271
     2
178
     4
271
     2
340
72E
  0
ENDTAB
  0
TABLE
  2
BLOCK_RECORD
  5
1
330
0
100
AcDbSymbolTable
 70
    11
  0
BLOCK_RECORD
  5
1F
330
1
100
AcDbSymbolTableRecord
100
AcDbBlockTableRecord
  2
*Model_Space
340
22
  0
BLOCK_RECORD
  5
1B
330
1
100
AcDbSymbolTableRecord
100
AcDbBlockTableRecord
  2
*Paper_Space
340
1E
  0
BLOCK_RECORD
  5
23
330
1
100
AcDbSymbolTableRecord
100
AcDbBlockTableRecord
  2
*Paper_Space0
340
26
  0
BLOCK_RECORD
  5
4E
330
1
100
AcDbSymbolTableRecord
100
AcDbBlockTableRecord
  2
_formato_A4
340
0
102
{BLKREFS
331
51
102
}
  0
BLOCK_RECORD
  5
730
330
1
100
AcDbSymbolTableRecord
100
AcDbBlockTableRecord
  2
*D2
340
0
  0
BLOCK_RECORD
  5
73B
330
1
100
AcDbSymbolTableRecord
100
AcDbBlockTableRecord
  2
*D3
340
0
  0
BLOCK_RECORD
  5
748
330
1
100
AcDbSymbolTableRecord
100
AcDbBlockTableRecord
  2
*D4
340
0
  0
BLOCK_RECORD
  5
753
330
1
100
AcDbSymbolTableRecord
100
AcDbBlockTableRecord
  2
*D5
340
0
  0
BLOCK_RECORD
  5
75E
330
1
100
AcDbSymbolTableRecord
100
AcDbBlockTableRecord
  2
*D6
340
0
  0
BLOCK_RECORD
  5
769
330
1
100
AcDbSymbolTableRecord
100
AcDbBlockTableRecord
  2
*D7
340
0
  0
BLOCK_RECORD
  5
774
330
1
100
AcDbSymbolTableRecord
100
AcDbBlockTableRecord
  2
*D8
340
0
  0
BLOCK_RECORD
  5
77F
330
1
100
AcDbSymbolTableRecord
100
AcDbBlockTableRecord
  2
*D9
340
0
  0
BLOCK_RECORD
  5
78A
330
1
100
AcDbSymbolTableRecord
100
AcDbBlockTableRecord
  2
*D10
340
0
  0
ENDTAB
  0
ENDSEC
  0
SECTION
  2
BLOCKS
  0
BLOCK
  5
20
330
1F
100
AcDbEntity
  8
0
100
AcDbBlockBegin
  2
*Model_Space
 70
     0
 10
0.0
 20
0.0
 30
0.0
  3
*Model_Space
  1

  0
ENDBLK
  5
21
330
1F
100
AcDbEntity
  8
0
100
AcDbBlockEnd
  0
BLOCK
  5
1C
330
1B
100
AcDbEntity
 67
     1
  8
0
100
AcDbBlockBegin
  2
*Paper_Space
 70
     0
 10
0.0
 20
0.0
 30
0.0
  3
*Paper_Space
  1

  0
ENDBLK
  5
1D
330
1B
100
AcDbEntity
 67
     1
  8
0
100
AcDbBlockEnd
  0
BLOCK
  5
24
330
23
100
AcDbEntity
  8
0
100
AcDbBlockBegin
  2
*Paper_Space0
 70
     0
 10
0.0
 20
0.0
 30
0.0
  3
*Paper_Space0
  1

  0
ENDBLK
  5
25
330
23
100
AcDbEntity
  8
0
100
AcDbBlockEnd
  0
BLOCK
  5
4F
330
4E
100
AcDbEntity
  8
0
100
AcDbBlockBegin
  2
_formato_A4
 70
     0
 10
296.9999999999999
 20
0.0
 30
0.0
  3
_formato_A4
  1

  0
LINE
  5
52
330
4E
100
AcDbEntity
  8
1
  6
Continuous
 62
     7
100
AcDbLine
 10
108.0
 20
9.99999999999986
 30
0.0
 11
138.0
 21
9.99999999999986
 31
0.0
  0
LINE
  5
53
330
4E
100
AcDbEntity
  8
1
  6
Continuous
 62
     7
100
AcDbLine
 10
108.0
 20
14.9999999999999
 30
0.0
 11
138.0
 21
14.9999999999999
 31
0.0
  0
LINE
  5
54
330
4E
100
AcDbEntity
  8
1
  6
Continuous
 62
     7
100
AcDbLine
 10
247.9999999999999
 20
20.0
 30
0.0
 11
247.9999999999999
 21
5.0
 31
0.0
  0
LINE
  5
55
330
4E
100
AcDbEntity
  8
1
  6
Continuous
 62
     7
100
AcDbLine
 10
265.352601377485
 20
20.0
 30
0.0
 11
265.352601377485
 21
5.0
 31
0.0
  0
LINE
  5
56
330
4E
100
AcDbEntity
  8
1
  6
Continuous
 62
     7
100
AcDbLine
 10
138.0
 20
20.0
 30
0.0
 11
138.0
 21
5.0
 31
0.0
  0
LINE
  5
57
330
4E
100
AcDbEntity
  8
1
  6
Continuous
 62
     7
100
AcDbLine
 10
148.5
 20
210.0
 30
0.0
 11
148.5
 21
195.0
 31
0.0
  0
LINE
  5
58
330
4E
100
AcDbEntity
  8
1
  6
Continuous
 62
     7
100
AcDbLine
 10
0.0
 20
0.0
 30
0.0
 11
296.9999999999999
 21
0.0
 31
0.0
  0
LINE
  5
59
330
4E
100
AcDbEntity
  8
1
  6
Continuous
 62
     7
100
AcDbLine
 10
0.0
 20
210.0
 30
0.0
 11
0.0
 21
0.0
 31
0.0
  0
LINE
  5
5A
330
4E
100
AcDbEntity
  8
1
  6
Continuous
 62
     7
100
AcDbLine
 10
296.9999999999999
 20
210.0
 30
0.0
 11
0.0
 21
210.0
 31
0.0
  0
LINE
  5
5B
330
4E
100
AcDbEntity
  8
1
  6
Continuous
 62
     7
100
AcDbLine
 10
296.9999999999999
 20
0.0
 30
0.0
 11
296.9999999999999
 21
210.0
 31
0.0
  0
LINE
  5
5C
330
4E
100
AcDbEntity
  8
1
  6
Continuous
 62
     7
100
AcDbLine
 10
4.99999999999989
 20
5.0
 30
0.0
 11
108.0
 21
5.0
 31
0.0
  0
LINE
  5
5D
330
4E
100
AcDbEntity
  8
1
  6
Continuous
 62
     7
100
AcDbLine
 10
291.9999999999999
 20
5.0
 30
0.0
 11
291.9999999999999
 21
189.0
 31
0.0
  0
LINE
  5
5E
330
4E
100
AcDbEntity
  8
1
  6
Continuous
 62
     7
100
AcDbLine
 10
291.9999999999999
 20
189.0
 30
0.0
 11
4.99999999999989
 21
189.0
 31
0.0
  0
LINE
  5
5F
102
{ACAD_REACTORS
330
A0
102
}
330
4E
100
AcDbEntity
  8
1
  6
Continuous
 62
     7
100
AcDbLine
 10
281.009634022076
 20
10.0774998398326
 30
0.0
 11
281.009634022076
 21
14.9225001601674
 31
0.0
  0
LINE
  5
60
102
{ACAD_REACTORS
330
9D
102
}
330
4E
100
AcDbEntity
  8
1
  6
Continuous
 62
     7
100
AcDbLine
 10
279.6763006887431
 20
12.5
 30
0.0
 11
279.6763006887431
 21
14.2320508075688
 31
0.0
  0
LINE
  5
61
102
{ACAD_REACTORS
330
9D
102
}
330
4E
100
AcDbEntity
  8
1
  6
Continuous
 62
     7
100
AcDbLine
 10
279.6763006887431
 20
14.2320508075688
 30
0.0
 11
278.82063825604
 21
12.75
 31
0.0
  0
LINE
  5
62
102
{ACAD_REACTORS
330
9D
102
}
330
4E
100
AcDbEntity
  8
1
  6
Continuous
 62
     7
100
AcDbLine
 10
278.531963121445
 20
12.75
 30
0.0
 11
277.6763006887431
 21
14.2320508075688
 31
0.0
  0
LINE
  5
63
102
{ACAD_REACTORS
330
9D
102
}
330
4E
100
AcDbEntity
  8
1
  6
Continuous
 62
     7
100
AcDbLine
 10
277.6763006887431
 20
14.2320508075688
 30
0.0
 11
277.6763006887431
 21
12.5
 31
0.0
  0
LINE
  5
64
330
4E
100
AcDbEntity
  8
1
  6
Continuous
 62
     7
100
AcDbLine
 10
270.2598654136011
 20
12.6443642643413
 30
0.0
 11
278.6763006887431
 21
17.5
 31
0.0
  0
LINE
  5
65
330
4E
100
AcDbEntity
  8
1
  6
Continuous
 62
     7
100
AcDbLine
 10
278.6763006887431
 20
17.5
 30
0.0
 11
287.092735963884
 21
12.6443642643413
 31
0.0
  0
LINE
  5
66
330
4E
100
AcDbEntity
  8
1
  6
Continuous
 62
     7
100
AcDbLine
 10
287.092735963884
 20
12.3556357356586
 30
0.0
 11
278.6763006887431
 21
7.5
 31
0.0
  0
LINE
  5
67
330
4E
100
AcDbEntity
  8
1
  6
Continuous
 62
     7
100
AcDbLine
 10
278.6763006887431
 20
7.5
 30
0.0
 11
270.2598654136011
 21
12.3556357356586
 31
0.0
  0
LINE
  5
68
102
{ACAD_REACTORS
330
9D
102
}
330
4E
100
AcDbEntity
  8
1
  6
Continuous
 62
     7
100
AcDbLine
 10
277.009634022076
 20
12.5
 30
0.0
 11
277.009634022076
 21
15.7312173120346
 31
0.0
  0
LINE
  5
69
102
{ACAD_REACTORS
330
9D
102
}
330
4E
100
AcDbEntity
  8
1
  6
Continuous
 62
     7
100
AcDbLine
 10
277.5040677056999
 20
15.8637004182723
 30
0.0
 11
278.6763006887431
 21
13.8333333333333
 31
0.0
  0
LINE
  5
6A
102
{ACAD_REACTORS
330
9D
102
}
330
4E
100
AcDbEntity
  8
1
  6
Continuous
 62
     7
100
AcDbLine
 10
277.009634022076
 20
12.5
 30
0.0
 11
277.009634022076
 21
10.8475850726329
 31
0.0
  0
LINE
  5
6B
102
{ACAD_REACTORS
330
9D
102
}
330
4E
100
AcDbEntity
  8
1
  6
Continuous
 62
     7
100
AcDbLine
 10
277.6763006887431
 20
10.8475850726329
 30
0.0
 11
277.6763006887431
 21
12.5
 31
0.0
  0
LINE
  5
6C
102
{ACAD_REACTORS
330
9D
102
}
330
4E
100
AcDbEntity
  8
1
  6
Continuous
 62
     7
100
AcDbLine
 10
279.6763006887431
 20
12.5
 30
0.0
 11
279.6763006887431
 21
9.3082690706018
 31
0.0
  0
LINE
  5
6D
102
{ACAD_REACTORS
330
9D
102
}
330
4E
100
AcDbEntity
  8
1
  6
Continuous
 62
     7
100
AcDbLine
 10
280.3429673554089
 20
9.3082690706018
 30
0.0
 11
280.3429673554089
 21
15.7312173120346
 31
0.0
  0
LINE
  5
6E
102
{ACAD_REACTORS
330
9D
102
}
330
4E
100
AcDbEntity
  8
1
  6
Continuous
 62
     7
100
AcDbLine
 10
279.848533671786
 20
15.8637004182723
 30
0.0
 11
278.6763006887431
 21
13.8333333333333
 31
0.0
  0
LINE
  5
6F
102
{ACAD_REACTORS
330
9E
102
}
330
4E
100
AcDbEntity
  8
1
  6
Continuous
 62
     7
100
AcDbLine
 10
275.6763006887431
 20
10.2700211480326
 30
0.0
 11
275.6763006887431
 21
14.9225001601674
 31
0.0
  0
LINE
  5
70
102
{ACAD_REACTORS
330
9E
102
}
330
4E
100
AcDbEntity
  8
1
  6
Continuous
 62
     7
100
AcDbLine
 10
276.3429673554089
 20
14.9225001601674
 30
0.0
 11
276.3429673554089
 21
10.2700211480327
 31
0.0
  0
LINE
  5
71
102
{ACAD_REACTORS
330
9E
102
}
330
4E
100
AcDbEntity
  8
1
  6
Continuous
 62
     7
100
AcDbLine
 10
276.3429673554089
 20
10.2700211480327
 30
0.0
 11
278.5095415065729
 21
9.0200745223616
 31
0.0
  0
LINE
  5
72
102
{ACAD_REACTORS
330
9E
102
}
330
4E
100
AcDbEntity
  8
1
  6
Continuous
 62
     7
100
AcDbLine
 10
278.176393204246
 20
8.44261746499581
 30
0.0
 11
276.0098190530829
 21
9.69256409066691
 31
0.0
  0
LINE
  5
73
102
{ACAD_REACTORS
330
9F
102
}
330
4E
100
AcDbEntity
  8
1
  6
Continuous
 62
     7
100
AcDbLine
 10
275.009634022076
 20
14.1532693909367
 30
0.0
 11
275.009634022076
 21
11.0392519172633
 31
0.0
  0
LINE
  5
74
102
{ACAD_REACTORS
330
9F
102
}
330
4E
100
AcDbEntity
  8
1
  6
Continuous
 62
     7
100
AcDbLine
 10
275.009634022076
 20
11.0392519172633
 30
0.0
 11
275.009634022076
 21
10.8467306090632
 31
0.0
  0
LINE
  5
75
102
{ACAD_REACTORS
330
9F
102
}
330
4E
100
AcDbEntity
  8
1
  6
Continuous
 62
     7
100
AcDbLine
 10
274.3429673554089
 20
10.8467306090632
 30
0.0
 11
274.3429673554089
 21
14.1532693909367
 31
0.0
  0
LINE
  5
76
102
{ACAD_REACTORS
330
A0
102
}
330
4E
100
AcDbEntity
  8
1
  6
Continuous
 62
     7
100
AcDbLine
 10
281.5095415065729
 20
15.2112286888503
 30
0.0
 11
282.842874839906
 21
14.4419979196194
 31
0.0
  0
LINE
  5
77
102
{ACAD_REACTORS
330
A0
102
}
330
4E
100
AcDbEntity
  8
1
  6
Continuous
 62
     7
100
AcDbLine
 10
282.50972653758
 20
13.8645408622538
 30
0.0
 11
281.6763006887431
 21
14.345363467352
 31
0.0
  0
LINE
  5
78
102
{ACAD_REACTORS
330
A0
102
}
330
4E
100
AcDbEntity
  8
1
  6
Continuous
 62
     7
100
AcDbLine
 10
281.6763006887431
 20
14.345363467352
 30
0.0
 11
281.6763006887431
 21
12.8333333333333
 31
0.0
  0
LINE
  5
79
102
{ACAD_REACTORS
330
A0
102
}
330
4E
100
AcDbEntity
  8
1
  6
Continuous
 62
     7
100
AcDbLine
 10
281.6763006887431
 20
12.8333333333333
 30
0.0
 11
282.6763006887431
 21
12.8333333333333
 31
0.0
  0
LINE
  5
7A
102
{ACAD_REACTORS
330
A0
102
}
330
4E
100
AcDbEntity
  8
1
  6
Continuous
 62
     7
100
AcDbLine
 10
282.6763006887431
 20
12.1666666666666
 30
0.0
 11
281.6763006887431
 21
12.1666666666666
 31
0.0
  0
LINE
  5
7B
102
{ACAD_REACTORS
330
A0
102
}
330
4E
100
AcDbEntity
  8
1
  6
Continuous
 62
     7
100
AcDbLine
 10
281.6763006887431
 20
12.1666666666666
 30
0.0
 11
281.6763006887431
 21
10.6546365326479
 31
0.0
  0
LINE
  5
7C
102
{ACAD_REACTORS
330
A0
102
}
330
4E
100
AcDbEntity
  8
1
  6
Continuous
 62
     7
100
AcDbLine
 10
281.6763006887431
 20
10.6546365326479
 30
0.0
 11
282.50972653758
 21
11.1354591377462
 31
0.0
  0
LINE
  5
7D
102
{ACAD_REACTORS
330
A0
102
}
330
4E
100
AcDbEntity
  8
1
  6
Continuous
 62
     7
100
AcDbLine
 10
282.842874839906
 20
10.5580020803803
 30
0.0
 11
281.5095415065729
 21
9.78877131114973
 31
0.0
  0
LINE
  5
7E
330
4E
100
AcDbEntity
  8
1
  6
Continuous
 62
     7
100
AcDbLine
 10
108.0
 20
25.0
 30
0.0
 11
291.9999999999999
 21
25.0
 31
0.0
  0
LINE
  5
7F
330
4E
100
AcDbEntity
  8
1
  6
Continuous
 62
     7
100
AcDbLine
 10
115.0
 20
20.0
 30
0.0
 11
115.0
 21
25.0
 31
0.0
  0
LINE
  5
80
330
4E
100
AcDbEntity
  8
1
  6
Continuous
 62
     7
100
AcDbLine
 10
133.0
 20
20.0
 30
0.0
 11
133.0
 21
25.0
 31
0.0
  0
LINE
  5
81
330
4E
100
AcDbEntity
  8
1
  6
Continuous
 62
     7
100
AcDbLine
 10
4.99999999999989
 20
189.0
 30
0.0
 11
4.99999999999989
 21
5.0
 31
0.0
  0
LINE
  5
82
330
4E
100
AcDbEntity
  8
1
  6
Continuous
 62
     7
100
AcDbLine
 10
108.0
 20
20.0
 30
0.0
 11
291.9999999999999
 21
20.0
 31
0.0
  0
LINE
  5
83
330
4E
100
AcDbEntity
  8
1
  6
Continuous
 62
     7
100
AcDbLine
 10
108.0
 20
25.0
 30
0.0
 11
108.0
 21
5.0
 31
0.0
  0
LINE
  5
84
330
4E
100
AcDbEntity
  8
1
  6
Continuous
 62
     7
100
AcDbLine
 10
108.0
 20
5.0
 30
0.0
 11
291.9999999999999
 21
5.0
 31
0.0
  0
ARC
  5
85
102
{ACAD_REACTORS
330
9D
102
}
330
4E
100
AcDbEntity
  8
1
  6
Continuous
 62
     7
100
AcDbCircle
 10
278.6763006887431
 20
12.8333333333333
 30
0.0
 40
0.1666666666672217
100
AcDbArc
 50
209.9999999998767
 51
329.9999999999279
  0
ARC
  5
86
102
{ACAD_REACTORS
330
9E
102
}
330
4E
100
AcDbEntity
  8
1
  6
Continuous
 62
     7
100
AcDbCircle
 10
276.3429673554089
 20
10.2700211480327
 30
0.0
 40
0.666666666665833
100
AcDbArc
 50
180.0000000000087
 51
240.018360631179
  0
ARC
  5
87
330
4E
100
AcDbEntity
  8
1
  6
Continuous
 62
     7
100
AcDbCircle
 10
270.343152489183
 20
12.5
 30
0.0
 40
0.1666666666666998
100
AcDbArc
 50
119.9816393689606
 51
240.0183606310565
  0
ARC
  5
88
330
4E
100
AcDbEntity
  8
1
  6
Continuous
 62
     7
100
AcDbCircle
 10
287.009448888303
 20
12.5
 30
0.0
 40
0.1666666666663598
100
AcDbArc
 50
299.9816393686896
 51
60.01836063129329
  0
ARC
  5
89
102
{ACAD_REACTORS
330
A0
102
}
330
4E
100
AcDbEntity
  8
1
  6
Continuous
 62
     7
100
AcDbCircle
 10
281.3429673554089
 20
14.9225001601674
 30
0.0
 40
0.3333333333337433
100
AcDbArc
 50
60.01836063103966
 51
180.0
  0
ARC
  5
8A
102
{ACAD_REACTORS
330
A0
102
}
330
4E
100
AcDbEntity
  8
1
  6
Continuous
 62
     7
100
AcDbCircle
 10
281.3429673554089
 20
10.0774998398326
 30
0.0
 40
0.3333333333329165
100
AcDbArc
 50
180.0
 51
299.9816393689629
  0
ARC
  5
8B
102
{ACAD_REACTORS
330
9D
102
}
330
4E
100
AcDbEntity
  8
1
  6
Continuous
 62
     7
100
AcDbCircle
 10
277.274600234551
 20
15.7312173120346
 30
0.0
 40
0.264966212476014
100
AcDbArc
 50
29.99999999992336
 51
180.0
  0
ARC
  5
8C
102
{ACAD_REACTORS
330
9D
102
}
330
4E
100
AcDbEntity
  8
1
  6
Continuous
 62
     7
100
AcDbCircle
 10
277.3429673554089
 20
10.8475850726329
 30
0.0
 40
0.3333333333329165
100
AcDbArc
 50
180.0
 51
0.0
  0
ARC
  5
8D
102
{ACAD_REACTORS
330
9D
102
}
330
4E
100
AcDbEntity
  8
1
  6
Continuous
 62
     7
100
AcDbCircle
 10
280.009634022076
 20
9.3082690706018
 30
0.0
 40
0.3333333333329165
100
AcDbArc
 50
180.0
 51
0.0
  0
ARC
  5
8E
102
{ACAD_REACTORS
330
9D
102
}
330
4E
100
AcDbEntity
  8
1
  6
Continuous
 62
     7
100
AcDbCircle
 10
280.0780011429339
 20
15.7312173120346
 30
0.0
 40
0.2649662124750307
100
AcDbArc
 50
0.0
 51
149.9999999999599
  0
ARC
  5
8F
102
{ACAD_REACTORS
330
9E
102
}
330
4E
100
AcDbEntity
  8
1
  6
Continuous
 62
     7
100
AcDbCircle
 10
276.009634022076
 20
14.9225001601674
 30
0.0
 40
0.3333333333329165
100
AcDbArc
 50
0.0
 51
180.0
  0
ARC
  5
90
102
{ACAD_REACTORS
330
9E
102
}
330
4E
100
AcDbEntity
  8
1
  6
Continuous
 62
     7
100
AcDbCircle
 10
278.3429673554089
 20
8.7313459936787
 30
0.0
 40
0.3333333333332227
100
AcDbArc
 50
240.0183606311911
 51
60.01836063103995
  0
ARC
  5
91
102
{ACAD_REACTORS
330
9F
102
}
330
4E
100
AcDbEntity
  8
1
  6
Continuous
 62
     7
100
AcDbCircle
 10
274.6763006887431
 20
14.1532693909367
 30
0.0
 40
0.3333333333329165
100
AcDbArc
 50
0.0
 51
180.0
  0
ARC
  5
92
102
{ACAD_REACTORS
330
9F
102
}
330
4E
100
AcDbEntity
  8
1
  6
Continuous
 62
     7
100
AcDbCircle
 10
274.6763006887431
 20
10.8467306090632
 30
0.0
 40
0.333333333334167
100
AcDbArc
 50
180.0
 51
0.0
  0
ARC
  5
93
102
{ACAD_REACTORS
330
A0
102
}
330
4E
100
AcDbEntity
  8
1
  6
Continuous
 62
     7
100
AcDbCircle
 10
282.6763006887431
 20
14.1532693909367
 30
0.0
 40
0.3333333333333172
100
AcDbArc
 50
240.0183606311666
 51
60.01836063117491
  0
ARC
  5
94
102
{ACAD_REACTORS
330
A0
102
}
330
4E
100
AcDbEntity
  8
1
  6
Continuous
 62
     7
100
AcDbCircle
 10
282.6763006887431
 20
12.5
 30
0.0
 40
0.3333333333333997
100
AcDbArc
 50
270.0
 51
90.0
  0
ARC
  5
95
102
{ACAD_REACTORS
330
A0
102
}
330
4E
100
AcDbEntity
  8
1
  6
Continuous
 62
     7
100
AcDbCircle
 10
282.6763006887431
 20
10.8467306090632
 30
0.0
 40
0.3333333333332335
100
AcDbArc
 50
299.9816393688079
 51
119.9816393688249
  0
MTEXT
  5
97
330
4E
100
AcDbEntity
  8
1
 62
     7
100
AcDbMText
 10
109.0
 20
7.49999999999987
 30
0.0
 40
3.0
 41
0.0
 71
     4
 72
     1
  1
Sign.
  7
CONVERTER_11
 73
     1
 44
0.75727272727273
  0
MTEXT
  5
98
330
4E
100
AcDbEntity
  8
1
 62
     7
100
AcDbMText
 10
109.0
 20
12.4999999999999
 30
0.0
 40
3.0
 41
0.0
 71
     4
 72
     1
  1
Date
  7
CONVERTER_11
 73
     1
 44
0.75727272727273
  0
MTEXT
  5
9A
330
4E
100
AcDbEntity
  8
1
 62
     7
100
AcDbMText
 10
123.0
 20
17.4999999999999
 30
0.0
 40
2.5
 41
0.0
 71
     5
 72
     1
  1
dimensions in mm
  7
CONVERTER_12
 73
     1
 44
0.75727272727273
  0
MTEXT
  5
9B
330
4E
100
AcDbEntity
  8
1
 62
     7
100
AcDbMText
 10
151.5
 20
194.0
 30
0.0
 40
4.0
 41
0.0
 71
     5
 72
     1
  1
Diritti riservati      All rights reserved
  7
CONVERTER_11
 73
     1
 44
0.75727272727273
  0
MTEXT
  5
9C
330
4E
100
AcDbEntity
  8
1
 62
     7
100
AcDbMText
 10
256.6763006887431
 20
16.260639420756
 30
0.0
 40
3.0
 41
0.0
 71
     5
 72
     1
  1
Scale
  7
CONVERTER_11
 73
     1
 44
0.75727272727273
  0
HATCH
  5
9D
330
4E
100
AcDbEntity
  8
1
  6
Continuous
 62
     7
100
AcDbHatch
 10
0.0
 20
0.0
 30
0.0
210
0.0
220
0.0
230
1.0
  2
SOLID
 70
     1
 71
     1
 91
        1
 92
        1
 93
       16
 72
     2
 10
277.274600234551
 20
15.7312173120346
 40
0.264966212476014
 50
29.99999999992336
 51
180.0
 73
     1
 72
     1
 10
277.009634022076
 20
15.7312173120346
 11
277.009634022076
 21
12.5
 72
     1
 10
277.009634022076
 20
12.5
 11
277.009634022076
 21
10.8475850726329
 72
     2
 10
277.3429673554089
 20
10.8475850726329
 40
0.3333333333329165
 50
180.0
 51
360.0
 73
     1
 72
     1
 10
277.6763006887431
 20
10.8475850726329
 11
277.6763006887431
 21
12.5
 72
     1
 10
277.6763006887431
 20
12.5
 11
277.6763006887431
 21
14.2320508075688
 72
     1
 10
277.6763006887431
 20
14.2320508075688
 11
278.531963121445
 21
12.75
 72
     2
 10
278.6763006887431
 20
12.8333333333333
 40
0.1666666666672217
 50
209.9999999998767
 51
329.9999999999279
 73
     1
 72
     1
 10
278.82063825604
 20
12.75
 11
279.6763006887431
 21
14.2320508075688
 72
     1
 10
279.6763006887431
 20
14.2320508075688
 11
279.6763006887431
 21
12.5
 72
     1
 10
279.6763006887431
 20
12.5
 11
279.6763006887431
 21
9.3082690706018
 72
     2
 10
280.009634022076
 20
9.3082690706018
 40
0.3333333333329165
 50
180.0
 51
360.0
 73
     1
 72
     1
 10
280.3429673554089
 20
9.3082690706018
 11
280.3429673554089
 21
15.7312173120346
 72
     2
 10
280.0780011429339
 20
15.7312173120346
 40
0.2649662124750307
 50
0.0
 51
149.9999999999599
 73
     1
 72
     1
 10
279.848533671786
 20
15.8637004182723
 11
278.6763006887431
 21
13.8333333333333
 72
     1
 10
278.6763006887431
 20
13.8333333333333
 11
277.5040677056999
 21
15.8637004182723
 97
       16
330
6E
330
8E
330
6D
330
8D
330
6C
330
60
330
61
330
85
330
62
330
63
330
6B
330
8C
330
6A
330
68
330
8B
330
69
 75
     0
 76
     1
 98
        1
 10
0.0
 20
0.0
  0
HATCH
  5
9E
330
4E
100
AcDbEntity
  8
1
  6
Continuous
 62
     7
100
AcDbHatch
 10
0.0
 20
0.0
 30
0.0
210
0.0
220
0.0
230
1.0
  2
SOLID
 70
     1
 71
     1
 91
        1
 92
        1
 93
        7
 72
     1
 10
276.3429673554089
 20
14.9225001601674
 11
276.3429673554089
 21
10.2700211480327
 72
     1
 10
276.3429673554089
 20
10.2700211480327
 11
278.5095415065729
 21
9.0200745223616
 72
     2
 10
278.3429673554089
 20
8.731345993678698
 40
0.3333333333332227
 50
299.98163936896
 51
479.9816393688089
 73
     0
 72
     1
 10
278.176393204246
 20
8.44261746499581
 11
276.0098190530829
 21
9.69256409066691
 72
     2
 10
276.3429673554089
 20
10.2700211480327
 40
0.666666666665833
 50
119.981639368821
 51
179.9999999999913
 73
     0
 72
     1
 10
275.6763006887431
 20
10.2700211480326
 11
275.6763006887431
 21
14.9225001601674
 72
     2
 10
276.009634022076
 20
14.9225001601674
 40
0.3333333333329165
 50
180.0
 51
360.0
 73
     0
 97
        7
330
70
330
71
330
90
330
72
330
86
330
6F
330
8F
 75
     0
 76
     1
 98
        1
 10
0.0
 20
0.0
  0
HATCH
  5
9F
330
4E
100
AcDbEntity
  8
1
  6
Continuous
 62
     7
100
AcDbHatch
 10
0.0
 20
0.0
 30
0.0
210
0.0
220
0.0
230
1.0
  2
SOLID
 70
     1
 71
     1
 91
        1
 92
        1
 93
        5
 72
     1
 10
275.009634022076
 20
14.1532693909367
 11
275.009634022076
 21
11.0392519172633
 72
     1
 10
275.009634022076
 20
11.0392519172633
 11
275.009634022076
 21
10.8467306090632
 72
     2
 10
274.6763006887431
 20
10.8467306090632
 40
0.333333333334167
 50
0.0
 51
180.0
 73
     0
 72
     1
 10
274.3429673554089
 20
10.8467306090632
 11
274.3429673554089
 21
14.1532693909367
 72
     2
 10
274.6763006887431
 20
14.1532693909367
 40
0.3333333333329165
 50
180.0
 51
360.0
 73
     0
 97
        5
330
73
330
74
330
92
330
75
330
91
 75
     0
 76
     1
 98
        1
 10
0.0
 20
0.0
  0
HATCH
  5
A0
330
4E
100
AcDbEntity
  8
1
  6
Continuous
 62
     7
100
AcDbHatch
 10
0.0
 20
0.0
 30
0.0
210
0.0
220
0.0
230
1.0
  2
SOLID
 70
     1
 71
     1
 91
        1
 92
        1
 93
       14
 72
     1
 10
282.50972653758
 20
13.8645408622538
 11
281.6763006887431
 21
14.345363467352
 72
     1
 10
281.6763006887431
 20
14.345363467352
 11
281.6763006887431
 21
12.8333333333333
 72
     1
 10
281.6763006887431
 20
12.8333333333333
 11
282.6763006887431
 21
12.8333333333333
 72
     2
 10
282.6763006887431
 20
12.5
 40
0.3333333333333997
 50
270.0
 51
450.0
 73
     0
 72
     1
 10
282.6763006887431
 20
12.1666666666666
 11
281.6763006887431
 21
12.1666666666666
 72
     1
 10
281.6763006887431
 20
12.1666666666666
 11
281.6763006887431
 21
10.6546365326479
 72
     1
 10
281.6763006887431
 20
10.6546365326479
 11
282.50972653758
 21
11.1354591377462
 72
     2
 10
282.6763006887431
 20
10.8467306090632
 40
0.3333333333332335
 50
240.0183606311751
 51
420.0183606311921
 73
     0
 72
     1
 10
282.842874839906
 20
10.5580020803803
 11
281.5095415065729
 21
9.78877131114973
 72
     2
 10
281.3429673554089
 20
10.0774998398326
 40
0.3333333333329165
 50
60.01836063103707
 51
180.0
 73
     0
 72
     1
 10
281.009634022076
 20
10.0774998398326
 11
281.009634022076
 21
14.9225001601674
 72
     2
 10
281.3429673554089
 20
14.9225001601674
 40
0.3333333333337433
 50
180.0
 51
299.9816393689604
 73
     0
 72
     1
 10
281.5095415065729
 20
15.2112286888503
 11
282.842874839906
 21
14.4419979196194
 72
     2
 10
282.6763006887431
 20
14.1532693909367
 40
0.3333333333333172
 50
299.9816393688251
 51
479.9816393688335
 73
     0
 97
       14
330
76
330
89
330
5F
330
8A
330
7D
330
95
330
7C
330
7B
330
7A
330
94
330
79
330
78
330
77
330
93
 75
     0
 76
     1
 98
        1
 10
0.0
 20
0.0
  0
ENDBLK
  5
50
330
4E
100
AcDbEntity
  8
0
100
AcDbBlockEnd
  0
BLOCK
  5
737
330
730
100
AcDbEntity
  8
0
100
AcDbBlockBegin
  2
*D2
 70
     1
 10
0.0
 20
0.0
 30
0.0
  3
*D2
  1

  0
LINE
  5
731
330
730
100
AcDbEntity
  8
1
  6
Continuous
 62
     2
100
AcDbLine
 10
284.776078591893
 20
128.6601673570955
 30
0.0
 11
284.776078591893
 21
65.66016735709562
 31
0.0
  0
LINE
  5
732
330
730
100
AcDbEntity
  8
1
  6
Continuous
 62
     2
100
AcDbLine
 10
259.9689710240484
 20
128.6601673570955
 30
0.0
 11
285.776078591893
 21
128.6601673570955
 31
0.0
  0
LINE
  5
733
330
730
100
AcDbEntity
  8
1
  6
Continuous
 62
     2
100
AcDbLine
 10
266.4189710240424
 20
65.66016735709562
 30
0.0
 11
285.776078591893
 21
65.66016735709562
 31
0.0
  0
SOLID
  5
734
330
730
100
AcDbEntity
  8
1
 62
     2
100
AcDbTrace
 10
285.1710360846552
 20
125.6601673570955
 30
0.0
 11
284.3811210991308
 21
125.6601673570955
 31
0.0
 12
284.776078591893
 22
128.6601673570955
 32
0.0
 13
284.776078591893
 23
128.6601673570955
 33
0.0
  0
SOLID
  5
735
330
730
100
AcDbEntity
  8
1
 62
     2
100
AcDbTrace
 10
284.3811210991308
 20
68.66016735709562
 30
0.0
 11
285.1710360846552
 21
68.66016735709562
 31
0.0
 12
284.776078591893
 22
65.66016735709562
 32
0.0
 13
284.776078591893
 23
65.66016735709562
 33
0.0
  0
MTEXT
  5
736
330
730
100
AcDbEntity
  8
1
 62
     4
100
AcDbMText
 10
282.776078591893
 20
94.91016735709557
 30
0.0
 40
3.0
 41
0.0
 71
     7
 72
     1
  1
63
  7
CONVERTER_13
 11
0.0
 21
1.0
 31
0.0
 73
     1
 44
0.60024009603842
  0
ENDBLK
  5
738
330
730
100
AcDbEntity
  8
0
100
AcDbBlockEnd
  0
BLOCK
  5
744
330
73B
100
AcDbEntity
  8
0
100
AcDbBlockBegin
  2
*D3
 70
     1
 10
0.0
 20
0.0
 30
0.0
  3
*D3
  1

  0
LINE
  5
73C
330
73B
100
AcDbEntity
  8
1
  6
Continuous
 62
     2
100
AcDbLine
 10
276.784056268449
 20
59.66016735709562
 30
0.0
 11
276.784056268449
 21
65.66016735709562
 31
0.0
  0
LINE
  5
73D
330
73B
100
AcDbEntity
  8
1
  6
Continuous
 62
     2
100
AcDbLine
 10
276.784056268449
 20
65.66016735709562
 30
0.0
 11
276.784056268449
 21
69.66016735709562
 31
0.0
  0
LINE
  5
73E
330
73B
100
AcDbEntity
  8
1
  6
Continuous
 62
     2
100
AcDbLine
 10
276.784056268449
 20
69.66016735709562
 30
0.0
 11
276.784056268449
 21
78.8040793047389
 31
0.0
  0
LINE
  5
73F
330
73B
100
AcDbEntity
  8
1
  6
Continuous
 62
     2
100
AcDbLine
 10
266.4189710240424
 20
65.66016735709562
 30
0.0
 11
277.784056268449
 21
65.66016735709562
 31
0.0
  0
LINE
  5
740
330
73B
100
AcDbEntity
  8
1
  6
Continuous
 62
     2
100
AcDbLine
 10
266.4189710240424
 20
69.66016735709562
 30
0.0
 11
277.784056268449
 21
69.66016735709562
 31
0.0
  0
SOLID
  5
741
330
73B
100
AcDbEntity
  8
1
 62
     2
100
AcDbTrace
 10
277.1790137612111
 20
62.66016735709562
 30
0.0
 11
276.3890987756868
 21
62.66016735709562
 31
0.0
 12
276.784056268449
 22
65.66016735709562
 32
0.0
 13
276.784056268449
 23
65.66016735709562
 33
0.0
  0
SOLID
  5
742
330
73B
100
AcDbEntity
  8
1
 62
     2
100
AcDbTrace
 10
276.3890987756868
 20
72.66016735709562
 30
0.0
 11
277.1790137612111
 21
72.66016735709562
 31
0.0
 12
276.784056268449
 22
69.66016735709562
 32
0.0
 13
276.784056268449
 23
69.66016735709562
 33
0.0
  0
MTEXT
  5
743
330
73B
100
AcDbEntity
  8
1
 62
     4
100
AcDbMText
 10
274.784056268449
 20
77.0040793047389
 30
0.0
 40
3.0
 41
0.0
 71
     7
 72
     1
  1
4
  7
CONVERTER_13
 11
0.0
 21
1.0
 31
0.0
 73
     1
 44
0.60024009603842
  0
ENDBLK
  5
745
330
73B
100
AcDbEntity
  8
0
100
AcDbBlockEnd
  0
BLOCK
  5
74F
330
748
100
AcDbEntity
  8
0
100
AcDbBlockBegin
  2
*D4
 70
     1
 10
0.0
 20
0.0
 30
0.0
  3
*D4
  1

  0
LINE
  5
749
330
748
100
AcDbEntity
  8
1
  6
Continuous
 62
     2
100
AcDbLine
 10
208.9189710240424
 20
32.5
 30
0.0
 11
265.9189710240424
 21
32.5
 31
0.0
  0
LINE
  5
74A
330
748
100
AcDbEntity
  8
1
  6
Continuous
 62
     2
100
AcDbLine
 10
208.9189710240424
 20
65.16016735709562
 30
0.0
 11
208.9189710240424
 21
31.5
 31
0.0
  0
LINE
  5
74B
330
748
100
AcDbEntity
  8
1
  6
Continuous
 62
     2
100
AcDbLine
 10
265.9189710240424
 20
65.16016735709562
 30
0.0
 11
265.9189710240424
 21
31.5
 31
0.0
  0
SOLID
  5
74C
330
748
100
AcDbEntity
  8
1
 62
     2
100
AcDbTrace
 10
211.9189710240424
 20
32.89495749276219
 30
0.0
 11
211.9189710240424
 21
32.10504250723781
 31
0.0
 12
208.9189710240424
 22
32.5
 32
0.0
 13
208.9189710240424
 23
32.5
 33
0.0
  0
SOLID
  5
74D
330
748
100
AcDbEntity
  8
1
 62
     2
100
AcDbTrace
 10
262.9189710240424
 20
32.10504250723781
 30
0.0
 11
262.9189710240424
 21
32.89495749276219
 31
0.0
 12
265.9189710240424
 22
32.5
 32
0.0
 13
265.9189710240424
 23
32.5
 33
0.0
  0
MTEXT
  5
74E
330
748
100
AcDbEntity
  8
1
 62
     4
100
AcDbMText
 10
235.1689710240424
 20
34.5
 30
0.0
 40
3.0
 41
0.0
 71
     7
 72
     1
  1
57
  7
CONVERTER_13
 11
0.9999999999970619
 21
2.424068405545306E-6
 31
0.0
 73
     1
 44
0.60024009603842
  0
ENDBLK
  5
750
330
748
100
AcDbEntity
  8
0
100
AcDbBlockEnd
  0
BLOCK
  5
75A
330
753
100
AcDbEntity
  8
0
100
AcDbBlockBegin
  2
*D5
 70
     1
 10
0.0
 20
0.0
 30
0.0
  3
*D5
  1

  0
LINE
  5
754
330
753
100
AcDbEntity
  8
1
  6
Continuous
 62
     2
100
AcDbLine
 10
214.9189710240444
 20
45.2
 30
0.0
 11
259.9189710240444
 21
45.2
 31
0.0
  0
LINE
  5
755
330
753
100
AcDbEntity
  8
1
  6
Continuous
 62
     2
100
AcDbLine
 10
214.9189710240444
 20
62.66016735709562
 30
0.0
 11
214.9189710240444
 21
44.2
 31
0.0
  0
LINE
  5
756
330
753
100
AcDbEntity
  8
1
  6
Continuous
 62
     2
100
AcDbLine
 10
259.9189710240444
 20
62.66016735709562
 30
0.0
 11
259.9189710240444
 21
44.2
 31
0.0
  0
SOLID
  5
757
330
753
100
AcDbEntity
  8
1
 62
     2
100
AcDbTrace
 10
217.9189710240444
 20
45.59495749276219
 30
0.0
 11
217.9189710240444
 21
44.80504250723781
 31
0.0
 12
214.9189710240444
 22
45.2
 32
0.0
 13
214.9189710240444
 23
45.2
 33
0.0
  0
SOLID
  5
758
330
753
100
AcDbEntity
  8
1
 62
     2
100
AcDbTrace
 10
256.9189710240444
 20
44.80504250723781
 30
0.0
 11
256.9189710240444
 21
45.59495749276219
 31
0.0
 12
259.9189710240444
 22
45.2
 32
0.0
 13
259.9189710240444
 23
45.2
 33
0.0
  0
MTEXT
  5
759
330
753
100
AcDbEntity
  8
1
 62
     4
100
AcDbMText
 10
235.1689710240444
 20
47.2
 30
0.0
 40
3.0
 41
0.0
 71
     7
 72
     1
  1
45
  7
CONVERTER_13
 11
0.9999999999970619
 21
2.424068405545306E-6
 31
0.0
 73
     1
 44
0.60024009603842
  0
ENDBLK
  5
75B
330
753
100
AcDbEntity
  8
0
100
AcDbBlockEnd
  0
BLOCK
  5
765
330
75E
100
AcDbEntity
  8
0
100
AcDbBlockBegin
  2
*D6
 70
     1
 10
0.0
 20
0.0
 30
0.0
  3
*D6
  1

  0
LINE
  5
75F
330
75E
100
AcDbEntity
  8
1
  6
Continuous
 62
     2
100
AcDbLine
 10
25.63740551460336
 20
32.5
 30
0.0
 11
169.6374055146034
 21
32.5
 31
0.0
  0
LINE
  5
760
330
75E
100
AcDbEntity
  8
1
  6
Continuous
 62
     2
100
AcDbLine
 10
25.63740551460336
 20
65.16016735709562
 30
0.0
 11
25.63740551460336
 21
31.5
 31
0.0
  0
LINE
  5
761
330
75E
100
AcDbEntity
  8
1
  6
Continuous
 62
     2
100
AcDbLine
 10
169.6374055146034
 20
65.16016735709562
 30
0.0
 11
169.6374055146034
 21
31.5
 31
0.0
  0
SOLID
  5
762
330
75E
100
AcDbEntity
  8
1
 62
     2
100
AcDbTrace
 10
28.63740551460336
 20
32.89495749276219
 30
0.0
 11
28.63740551460336
 21
32.10504250723781
 31
0.0
 12
25.63740551460336
 22
32.5
 32
0.0
 13
25.63740551460336
 23
32.5
 33
0.0
  0
SOLID
  5
763
330
75E
100
AcDbEntity
  8
1
 62
     2
100
AcDbTrace
 10
166.6374055146034
 20
32.10504250723781
 30
0.0
 11
166.6374055146034
 21
32.89495749276219
 31
0.0
 12
169.6374055146034
 22
32.5
 32
0.0
 13
169.6374055146034
 23
32.5
 33
0.0
  0
MTEXT
  5
764
330
75E
100
AcDbEntity
  8
1
 62
     4
100
AcDbMText
 10
94.48740551460335
 20
34.5
 30
0.0
 40
3.0
 41
0.0
 71
     7
 72
     1
  1
144
  7
CONVERTER_13
 11
0.9999999999970619
 21
2.424068405545306E-6
 31
0.0
 73
     1
 44
0.60024009603842
  0
ENDBLK
  5
766
330
75E
100
AcDbEntity
  8
0
100
AcDbBlockEnd
  0
BLOCK
  5
770
330
769
100
AcDbEntity
  8
0
100
AcDbBlockBegin
  2
*D7
 70
     1
 10
0.0
 20
0.0
 30
0.0
  3
*D7
  1

  0
LINE
  5
76A
330
769
100
AcDbEntity
  8
1
  6
Continuous
 62
     2
100
AcDbLine
 10
31.63740551460336
 20
45.2
 30
0.0
 11
163.6374055146034
 21
45.2
 31
0.0
  0
LINE
  5
76B
330
769
100
AcDbEntity
  8
1
  6
Continuous
 62
     2
100
AcDbLine
 10
31.63740551460336
 20
62.66016735709562
 30
0.0
 11
31.63740551460336
 21
44.2
 31
0.0
  0
LINE
  5
76C
330
769
100
AcDbEntity
  8
1
  6
Continuous
 62
     2
100
AcDbLine
 10
163.6374055146034
 20
62.66016735709562
 30
0.0
 11
163.6374055146034
 21
44.2
 31
0.0
  0
SOLID
  5
76D
330
769
100
AcDbEntity
  8
1
 62
     2
100
AcDbTrace
 10
34.63740551460336
 20
45.59495749276219
 30
0.0
 11
34.63740551460336
 21
44.80504250723781
 31
0.0
 12
31.63740551460336
 22
45.2
 32
0.0
 13
31.63740551460336
 23
45.2
 33
0.0
  0
SOLID
  5
76E
330
769
100
AcDbEntity
  8
1
 62
     2
100
AcDbTrace
 10
160.6374055146034
 20
44.80504250723781
 30
0.0
 11
160.6374055146034
 21
45.59495749276219
 31
0.0
 12
163.6374055146034
 22
45.2
 32
0.0
 13
163.6374055146034
 23
45.2
 33
0.0
  0
MTEXT
  5
76F
330
769
100
AcDbEntity
  8
1
 62
     4
100
AcDbMText
 10
94.48740551460335
 20
47.2
 30
0.0
 40
3.0
 41
0.0
 71
     7
 72
     1
  1
132
  7
CONVERTER_13
 11
0.9999999999970619
 21
2.424068405545306E-6
 31
0.0
 73
     1
 44
0.60024009603842
  0
ENDBLK
  5
771
330
769
100
AcDbEntity
  8
0
100
AcDbBlockEnd
  0
BLOCK
  5
77B
330
774
100
AcDbEntity
  8
0
100
AcDbBlockBegin
  2
*D8
 70
     1
 10
0.0
 20
0.0
 30
0.0
  3
*D8
  1

  0
LINE
  5
775
330
774
100
AcDbEntity
  8
1
  6
Continuous
 62
     2
100
AcDbLine
 10
185.006308555605
 20
70.49816735709562
 30
0.0
 11
185.006308555605
 21
99.60216735709552
 31
0.0
  0
LINE
  5
776
330
774
100
AcDbEntity
  8
1
  6
Continuous
 62
     2
100
AcDbLine
 10
170.2374055146034
 20
70.49816735709562
 30
0.0
 11
186.006308555605
 21
70.49816735709562
 31
0.0
  0
LINE
  5
777
330
774
100
AcDbEntity
  8
1
  6
Continuous
 62
     2
100
AcDbLine
 10
170.1374055146034
 20
99.60216735709552
 30
0.0
 11
186.006308555605
 21
99.60216735709552
 31
0.0
  0
SOLID
  5
778
330
774
100
AcDbEntity
  8
1
 62
     2
100
AcDbTrace
 10
184.6113510628428
 20
73.49816735709562
 30
0.0
 11
185.4012660483672
 21
73.49816735709562
 31
0.0
 12
185.006308555605
 22
70.49816735709562
 32
0.0
 13
185.006308555605
 23
70.49816735709562
 33
0.0
  0
SOLID
  5
779
330
774
100
AcDbEntity
  8
1
 62
     2
100
AcDbTrace
 10
185.4012660483672
 20
96.60216735709552
 30
0.0
 11
184.6113510628428
 21
96.60216735709552
 31
0.0
 12
185.006308555605
 22
99.60216735709552
 32
0.0
 13
185.006308555605
 23
99.60216735709552
 33
0.0
  0
MTEXT
  5
77A
330
774
100
AcDbEntity
  8
1
 62
     4
100
AcDbMText
 10
183.006308555605
 20
80.40016735709557
 30
0.0
 40
3.0
 41
0.0
 71
     7
 72
     1
  1
PG21
  7
CONVERTER_13
 11
0.0
 21
1.0
 31
0.0
 73
     1
 44
0.60024009603842
  0
ENDBLK
  5
77C
330
774
100
AcDbEntity
  8
0
100
AcDbBlockEnd
  0
BLOCK
  5
786
330
77F
100
AcDbEntity
  8
0
100
AcDbBlockBegin
  2
*D9
 70
     1
 10
0.0
 20
0.0
 30
0.0
  3
*D9
  1

  0
LINE
  5
780
330
77F
100
AcDbEntity
  8
1
  6
Continuous
 62
     2
100
AcDbLine
 10
181.0713554863194
 20
166.7
 30
0.0
 11
14.20345554288741
 21
166.7
 31
0.0
  0
LINE
  5
781
330
77F
100
AcDbEntity
  8
1
  6
Continuous
 62
     2
100
AcDbLine
 10
181.0713554863194
 20
111.1601673570955
 30
0.0
 11
181.0713554863194
 21
167.7
 31
0.0
  0
LINE
  5
782
330
77F
100
AcDbEntity
  8
1
  6
Continuous
 62
     2
100
AcDbLine
 10
14.20345554288741
 20
111.1601673570955
 30
0.0
 11
14.20345554288741
 21
167.7
 31
0.0
  0
SOLID
  5
783
330
77F
100
AcDbEntity
  8
1
 62
     2
100
AcDbTrace
 10
178.0713554863194
 20
166.3050425072378
 30
0.0
 11
178.0713554863194
 21
167.0949574927622
 31
0.0
 12
181.0713554863194
 22
166.7
 32
0.0
 13
181.0713554863194
 23
166.7
 33
0.0
  0
SOLID
  5
784
330
77F
100
AcDbEntity
  8
1
 62
     2
100
AcDbTrace
 10
17.20345554288741
 20
167.0949574927622
 30
0.0
 11
17.20345554288741
 21
166.3050425072378
 31
0.0
 12
14.20345554288741
 22
166.7
 32
0.0
 13
14.20345554288741
 23
166.7
 33
0.0
  0
MTEXT
  5
785
330
77F
100
AcDbEntity
  8
1
 62
     4
100
AcDbMText
 10
94.48740551460341
 20
168.7
 30
0.0
 40
3.0
 41
0.0
 71
     7
 72
     1
  1
167
  7
CONVERTER_13
 11
0.9999999999970619
 21
2.424068405545306E-6
 31
0.0
 73
     1
 44
0.60024009603842
  0
ENDBLK
  5
787
330
77F
100
AcDbEntity
  8
0
100
AcDbBlockEnd
  0
BLOCK
  5
791
330
78A
100
AcDbEntity
  8
0
100
AcDbBlockBegin
  2
*D10
 70
     1
 10
0.0
 20
0.0
 30
0.0
  3
*D10
  1

  0
LINE
  5
78B
330
78A
100
AcDbEntity
  8
1
  6
Continuous
 62
     2
100
AcDbLine
 10
208.9189710240534
 20
166.7
 30
0.0
 11
265.9189710240534
 21
166.7
 31
0.0
  0
LINE
  5
78C
330
78A
100
AcDbEntity
  8
1
  6
Continuous
 62
     2
100
AcDbLine
 10
208.9189710240534
 20
126.1601673570955
 30
0.0
 11
208.9189710240534
 21
167.7
 31
0.0
  0
LINE
  5
78D
330
78A
100
AcDbEntity
  8
1
  6
Continuous
 62
     2
100
AcDbLine
 10
265.9189710240534
 20
126.1601673570955
 30
0.0
 11
265.9189710240534
 21
167.7
 31
0.0
  0
SOLID
  5
78E
330
78A
100
AcDbEntity
  8
1
 62
     2
100
AcDbTrace
 10
211.9189710240534
 20
167.0949574927622
 30
0.0
 11
211.9189710240534
 21
166.3050425072378
 31
0.0
 12
208.9189710240534
 22
166.7
 32
0.0
 13
208.9189710240534
 23
166.7
 33
0.0
  0
SOLID
  5
78F
330
78A
100
AcDbEntity
  8
1
 62
     2
100
AcDbTrace
 10
262.9189710240534
 20
166.3050425072378
 30
0.0
 11
262.9189710240534
 21
167.0949574927622
 31
0.0
 12
265.9189710240534
 22
166.7
 32
0.0
 13
265.9189710240534
 23
166.7
 33
0.0
  0
MTEXT
  5
790
330
78A
100
AcDbEntity
  8
1
 62
     4
100
AcDbMText
 10
235.1689710240534
 20
168.7
 30
0.0
 40
3.0
 41
0.0
 71
     7
 72
     1
  1
58
  7
CONVERTER_13
 11
0.9999999999970619
 21
2.424068405545306E-6
 31
0.0
 73
     1
 44
0.60024009603842
  0
ENDBLK
  5
792
330
78A
100
AcDbEntity
  8
0
100
AcDbBlockEnd
  0
ENDSEC
  0
SECTION
  2
ENTITIES
  0
INSERT
  5
51
330
1F
100
AcDbEntity
  8
1
100
AcDbBlockReference
  2
_formato_A4
 10
296.9999999999999
 20
0.0
 30
0.0
  0
POINT
  5
A1
330
1F
100
AcDbEntity
  8
Bemaßungen_TC_020513_DIN_
 62
     7
100
AcDbPoint
 10
169.6374055146034
 20
99.60216735709552
 30
0.0
  0
POINT
  5
A2
330
1F
100
AcDbEntity
  8
Bemaßungen_TC_020513_DIN_
 62
     7
100
AcDbPoint
 10
169.6374055146034
 20
70.49816735709562
 30
0.0
  0
POINT
  5
A3
330
1F
100
AcDbEntity
  8
Bemaßungen_TC_020513_DIN_
 62
     7
100
AcDbPoint
 10
14.20345554288741
 20
110.6601673570955
 30
0.0
  0
POINT
  5
A4
330
1F
100
AcDbEntity
  8
Bemaßungen_TC_020513_DIN_
 62
     7
100
AcDbPoint
 10
181.0713554863194
 20
110.6601673570955
 30
0.0
  0
POINT
  5
A5
330
1F
100
AcDbEntity
  8
Bemaßungen_TC_020513_DIN_
 62
     7
100
AcDbPoint
 10
208.9189710240534
 20
125.6601673570955
 30
0.0
  0
POINT
  5
A6
330
1F
100
AcDbEntity
  8
Bemaßungen_TC_020513_DIN_
 62
     7
100
AcDbPoint
 10
265.9189710240534
 20
125.6601673570955
 30
0.0
  0
POINT
  5
A7
330
1F
100
AcDbEntity
  8
Bemaßungen_TC_020513_DIN_
 62
     7
100
AcDbPoint
 10
154.7874055146035
 20
128.6601673570955
 30
0.0
  0
POINT
  5
A8
330
1F
100
AcDbEntity
  8
Bemaßungen_TC_020513_DIN_
 62
     7
100
AcDbPoint
 10
150.6374055146034
 20
65.66016735709562
 30
0.0
  0
POINT
  5
A9
330
1F
100
AcDbEntity
  8
Bemaßungen_TC_020513_DIN_
 62
     7
100
AcDbPoint
 10
265.9189710240424
 20
65.66016735709562
 30
0.0
  0
POINT
  5
AA
330
1F
100
AcDbEntity
  8
Bemaßungen_TC_020513_DIN_
 62
     7
100
AcDbPoint
 10
261.2189710240514
 20
146.6601673570955
 30
0.0
  0
POINT
  5
AB
330
1F
100
AcDbEntity
  8
Bemaßungen_TC_020513_DIN_
 62
     7
100
AcDbPoint
 10
265.9189710240424
 20
69.66016735709562
 30
0.0
  0
POINT
  5
AC
330
1F
100
AcDbEntity
  8
Bemaßungen_TC_020513_DIN_
 62
     7
100
AcDbPoint
 10
265.9189710240424
 20
65.66016735709562
 30
0.0
  0
POINT
  5
AD
330
1F
100
AcDbEntity
  8
Bemaßungen_TC_020513_DIN_
 62
     7
100
AcDbPoint
 10
214.9189710240444
 20
67.66016735709562
 30
0.0
  0
POINT
  5
AE
330
1F
100
AcDbEntity
  8
Bemaßungen_TC_020513_DIN_
 62
     7
100
AcDbPoint
 10
259.9189710240444
 20
67.66016735709562
 30
0.0
  0
POINT
  5
AF
330
1F
100
AcDbEntity
  8
Bemaßungen_TC_020513_DIN_
 62
     7
100
AcDbPoint
 10
265.9189710240424
 20
67.66016735709562
 30
0.0
  0
POINT
  5
B0
330
1F
100
AcDbEntity
  8
Bemaßungen_TC_020513_DIN_
 62
     7
100
AcDbPoint
 10
208.9189710240424
 20
67.66016735709562
 30
0.0
  0
POINT
  5
B1
330
1F
100
AcDbEntity
  8
Bemaßungen_TC_020513_DIN_
 62
     7
100
AcDbPoint
 10
163.6374055146034
 20
67.66016735709562
 30
0.0
  0
POINT
  5
B2
330
1F
100
AcDbEntity
  8
Bemaßungen_TC_020513_DIN_
 62
     7
100
AcDbPoint
 10
31.63740551460336
 20
67.66016735709562
 30
0.0
  0
POINT
  5
B3
330
1F
100
AcDbEntity
  8
Bemaßungen_TC_020513_DIN_
 62
     7
100
AcDbPoint
 10
25.63740551460336
 20
67.66016735709562
 30
0.0
  0
POINT
  5
B4
330
1F
100
AcDbEntity
  8
Bemaßungen_TC_020513_DIN_
 62
     7
100
AcDbPoint
 10
169.6374055146034
 20
67.66016735709562
 30
0.0
  0
POINT
  5
B5
330
1F
100
AcDbEntity
  8
Bemaßungen_TC_020513_DIN_
 62
     7
100
AcDbPoint
 10
169.6374055146034
 20
99.60216735709552
 30
0.0
  0
POINT
  5
B6
330
1F
100
AcDbEntity
  8
Bemaßungen_TC_020513_DIN_
 62
     7
100
AcDbPoint
 10
169.6374055146034
 20
70.49816735709562
 30
0.0
  0
POINT
  5
B7
330
1F
100
AcDbEntity
  8
Bemaßungen_TC_020513_DIN_
 62
     7
100
AcDbPoint
 10
14.20345554288741
 20
110.6601673570955
 30
0.0
  0
POINT
  5
B8
330
1F
100
AcDbEntity
  8
Bemaßungen_TC_020513_DIN_
 62
     7
100
AcDbPoint
 10
181.0713554863194
 20
110.6601673570955
 30
0.0
  0
POINT
  5
B9
330
1F
100
AcDbEntity
  8
Bemaßungen_TC_020513_DIN_
 62
     7
100
AcDbPoint
 10
208.9189710240534
 20
125.6601673570955
 30
0.0
  0
POINT
  5
BA
330
1F
100
AcDbEntity
  8
Bemaßungen_TC_020513_DIN_
 62
     7
100
AcDbPoint
 10
265.9189710240534
 20
125.6601673570955
 30
0.0
  0
POINT
  5
BB
330
1F
100
AcDbEntity
  8
Bemaßungen_TC_020513_DIN_
 62
     7
100
AcDbPoint
 10
154.7874055146035
 20
128.6601673570955
 30
0.0
  0
POINT
  5
BC
330
1F
100
AcDbEntity
  8
Bemaßungen_TC_020513_DIN_
 62
     7
100
AcDbPoint
 10
150.6374055146034
 20
65.66016735709562
 30
0.0
  0
POINT
  5
BD
330
1F
100
AcDbEntity
  8
Bemaßungen_TC_020513_DIN_
 62
     7
100
AcDbPoint
 10
265.9189710240424
 20
65.66016735709562
 30
0.0
  0
POINT
  5
BE
330
1F
100
AcDbEntity
  8
Bemaßungen_TC_020513_DIN_
 62
     7
100
AcDbPoint
 10
261.2189710240514
 20
146.6601673570955
 30
0.0
  0
POINT
  5
BF
330
1F
100
AcDbEntity
  8
Bemaßungen_TC_020513_DIN_
 62
     7
100
AcDbPoint
 10
265.9189710240424
 20
69.66016735709562
 30
0.0
  0
POINT
  5
C0
330
1F
100
AcDbEntity
  8
Bemaßungen_TC_020513_DIN_
 62
     7
100
AcDbPoint
 10
265.9189710240424
 20
65.66016735709562
 30
0.0
  0
POINT
  5
C1
330
1F
100
AcDbEntity
  8
Bemaßungen_TC_020513_DIN_
 62
     7
100
AcDbPoint
 10
214.9189710240444
 20
67.66016735709562
 30
0.0
  0
POINT
  5
C2
330
1F
100
AcDbEntity
  8
Bemaßungen_TC_020513_DIN_
 62
     7
100
AcDbPoint
 10
259.9189710240444
 20
67.66016735709562
 30
0.0
  0
POINT
  5
C3
330
1F
100
AcDbEntity
  8
Bemaßungen_TC_020513_DIN_
 62
     7
100
AcDbPoint
 10
265.9189710240424
 20
67.66016735709562
 30
0.0
  0
POINT
  5
C4
330
1F
100
AcDbEntity
  8
Bemaßungen_TC_020513_DIN_
 62
     7
100
AcDbPoint
 10
208.9189710240424
 20
67.66016735709562
 30
0.0
  0
POINT
  5
C5
330
1F
100
AcDbEntity
  8
Bemaßungen_TC_020513_DIN_
 62
     7
100
AcDbPoint
 10
163.6374055146034
 20
67.66016735709562
 30
0.0
  0
POINT
  5
C6
330
1F
100
AcDbEntity
  8
Bemaßungen_TC_020513_DIN_
 62
     7
100
AcDbPoint
 10
31.63740551460336
 20
67.66016735709562
 30
0.0
  0
POINT
  5
C7
330
1F
100
AcDbEntity
  8
Bemaßungen_TC_020513_DIN_
 62
     7
100
AcDbPoint
 10
25.63740551460336
 20
67.66016735709562
 30
0.0
  0
POINT
  5
C8
330
1F
100
AcDbEntity
  8
Bemaßungen_TC_020513_DIN_
 62
     7
100
AcDbPoint
 10
169.6374055146034
 20
67.66016735709562
 30
0.0
  0
LINE
  5
519
330
1F
100
AcDbEntity
  8
Sichtbare_Kanten_TC_020513_DIN_
  6
Continuous
 62
     7
100
AcDbLine
 10
99.38740551460336
 20
92.10383396823153
 30
0.0
 11
99.38740551460336
 21
95.21650074596052
 31
0.0
  0
LINE
  5
51A
330
1F
100
AcDbEntity
  8
Sichtbare_Kanten_TC_020513_DIN_
  6
Continuous
 62
     7
100
AcDbLine
 10
100.7622944620954
 20
92.46393020572052
 30
0.0
 11
99.76229446209544
 21
91.88726353905452
 31
0.0
  0
LINE
  5
51B
330
1F
100
AcDbEntity
  8
Sichtbare_Kanten_TC_020513_DIN_
  6
Continuous
 62
     7
100
AcDbLine
 10
99.88740551460336
 20
92.53659035713052
 30
0.0
 11
100.5125165671104
 21
92.89707106407653
 31
0.0
  0
LINE
  5
51C
330
1F
100
AcDbEntity
  8
Sichtbare_Kanten_TC_020513_DIN_
  6
Continuous
 62
     7
100
AcDbLine
 10
99.88740551460336
 20
93.41016735709552
 30
0.0
 11
99.88740551460336
 21
92.53659035713052
 31
0.0
  0
LINE
  5
51D
330
1F
100
AcDbEntity
  8
Sichtbare_Kanten_TC_020513_DIN_
  6
Continuous
 62
     7
100
AcDbLine
 10
100.6374055146034
 20
93.41016735709552
 30
0.0
 11
99.88740551460336
 21
93.41016735709552
 31
0.0
  0
LINE
  5
51E
330
1F
100
AcDbEntity
  8
Sichtbare_Kanten_TC_020513_DIN_
  6
Continuous
 62
     7
100
AcDbLine
 10
99.88740551460336
 20
93.91016735709552
 30
0.0
 11
100.6374055146034
 21
93.91016735709552
 31
0.0
  0
LINE
  5
51F
330
1F
100
AcDbEntity
  8
Sichtbare_Kanten_TC_020513_DIN_
  6
Continuous
 62
     7
100
AcDbLine
 10
99.88740551460336
 20
94.78374435706252
 30
0.0
 11
99.88740551460336
 21
93.91016735709552
 31
0.0
  0
LINE
  5
520
330
1F
100
AcDbEntity
  8
Sichtbare_Kanten_TC_020513_DIN_
  6
Continuous
 62
     7
100
AcDbLine
 10
100.5125165671104
 20
94.42326365011652
 30
0.0
 11
99.88740551460336
 21
94.78374435706252
 31
0.0
  0
LINE
  5
521
330
1F
100
AcDbEntity
  8
Sichtbare_Kanten_TC_020513_DIN_
  6
Continuous
 62
     7
100
AcDbLine
 10
99.76229446209544
 20
95.43307117513852
 30
0.0
 11
100.7622944620954
 21
94.85640450847153
 31
0.0
  0
LINE
  5
522
330
1F
100
AcDbEntity
  8
Sichtbare_Kanten_TC_020513_DIN_
  6
Continuous
 62
     7
100
AcDbLine
 10
94.88740551460336
 20
94.65016735709553
 30
0.0
 11
94.88740551460336
 21
92.67016735709552
 31
0.0
  0
LINE
  5
523
330
1F
100
AcDbEntity
  8
Sichtbare_Kanten_TC_020513_DIN_
  6
Continuous
 62
     7
100
AcDbLine
 10
94.38740551460336
 20
92.67016735709552
 30
0.0
 11
94.38740551460336
 21
94.65016735709553
 31
0.0
  0
LINE
  5
524
330
1F
100
AcDbEntity
  8
Sichtbare_Kanten_TC_020513_DIN_
  6
Continuous
 62
     7
100
AcDbLine
 10
91.63740551460336
 20
93.66016735709552
 30
0.0
 11
97.63740551460336
 21
90.20016735709652
 31
0.0
  0
LINE
  5
525
330
1F
100
AcDbEntity
  8
Sichtbare_Kanten_TC_020513_DIN_
  6
Continuous
 62
     7
100
AcDbLine
 10
97.63740551460336
 20
90.20016735709652
 30
0.0
 11
103.6374055146034
 21
93.66016735709552
 31
0.0
  0
LINE
  5
526
330
1F
100
AcDbEntity
  8
Sichtbare_Kanten_TC_020513_DIN_
  6
Continuous
 62
     7
100
AcDbLine
 10
103.6374055146034
 20
93.66016735709552
 30
0.0
 11
97.63740551460336
 21
97.12016735709652
 31
0.0
  0
LINE
  5
527
330
1F
100
AcDbEntity
  8
Sichtbare_Kanten_TC_020513_DIN_
  6
Continuous
 62
     7
100
AcDbLine
 10
97.63740551460336
 20
97.12016735709652
 30
0.0
 11
91.63740551460336
 21
93.66016735709552
 31
0.0
  0
LINE
  5
528
330
1F
100
AcDbEntity
  8
Sichtbare_Kanten_TC_020513_DIN_
  6
Continuous
 62
     7
100
AcDbLine
 10
97.63740551460336
 20
89.91157763486453
 30
0.0
 11
91.13696090957643
 21
93.66016735709653
 31
0.0
  0
LINE
  5
529
330
1F
100
AcDbEntity
  8
Sichtbare_Kanten_TC_020513_DIN_
  6
Continuous
 62
     7
100
AcDbLine
 10
104.1378501196304
 20
93.66016735709552
 30
0.0
 11
97.63740551460336
 21
89.91157763486453
 31
0.0
  0
LINE
  5
52A
330
1F
100
AcDbEntity
  8
Sichtbare_Kanten_TC_020513_DIN_
  6
Continuous
 62
     7
100
AcDbLine
 10
97.63740551460336
 20
97.40875707932852
 30
0.0
 11
104.1378501196304
 21
93.66016735709552
 31
0.0
  0
LINE
  5
52B
330
1F
100
AcDbEntity
  8
Sichtbare_Kanten_TC_020513_DIN_
  6
Continuous
 62
     7
100
AcDbLine
 10
91.13696090957643
 20
93.66016735709653
 30
0.0
 11
97.63740551460336
 21
97.40875707932852
 31
0.0
  0
LINE
  5
52C
330
1F
100
AcDbEntity
  8
Sichtbare_Kanten_TC_020513_DIN_
  6
Continuous
 62
     7
100
AcDbLine
 10
97.51251656711037
 20
90.73393020572152
 30
0.0
 11
95.51251656711037
 21
91.88726353905452
 31
0.0
  0
LINE
  5
52D
330
1F
100
AcDbEntity
  8
Sichtbare_Kanten_TC_020513_DIN_
  6
Continuous
 62
     7
100
AcDbLine
 10
95.88740551460336
 20
92.24825702379653
 30
0.0
 11
97.76229446209544
 21
91.16707106407652
 31
0.0
  0
LINE
  5
52E
330
1F
100
AcDbEntity
  8
Sichtbare_Kanten_TC_020513_DIN_
  6
Continuous
 62
     7
100
AcDbLine
 10
95.88740551460336
 20
95.21650074596052
 30
0.0
 11
95.88740551460336
 21
92.24825702379653
 31
0.0
  0
LINE
  5
52F
330
1F
100
AcDbEntity
  8
Sichtbare_Kanten_TC_020513_DIN_
  6
Continuous
 62
     7
100
AcDbLine
 10
95.38740551460336
 20
92.10383396823153
 30
0.0
 11
95.38740551460336
 21
95.21650074596052
 31
0.0
  0
LINE
  5
530
330
1F
100
AcDbEntity
  8
Sichtbare_Kanten_TC_020513_DIN_
  6
Continuous
 62
     7
100
AcDbLine
 10
96.88740551460336
 20
95.04048847727552
 30
0.0
 11
96.88740551460336
 21
92.67016735709552
 31
0.0
  0
LINE
  5
531
330
1F
100
AcDbEntity
  8
Sichtbare_Kanten_TC_020513_DIN_
  6
Continuous
 62
     7
100
AcDbLine
 10
97.63740551460336
 20
94.03602517416752
 30
0.0
 11
96.88740551460336
 21
95.04048847727552
 31
0.0
  0
LINE
  5
532
330
1F
100
AcDbEntity
  8
Sichtbare_Kanten_TC_020513_DIN_
  6
Continuous
 62
     7
100
AcDbLine
 10
98.38740551460336
 20
95.04048847727552
 30
0.0
 11
97.63740551460336
 21
94.03602517416752
 31
0.0
  0
LINE
  5
533
330
1F
100
AcDbEntity
  8
Sichtbare_Kanten_TC_020513_DIN_
  6
Continuous
 62
     7
100
AcDbLine
 10
98.38740551460336
 20
91.52716730156553
 30
0.0
 11
98.38740551460336
 21
95.04048847727552
 31
0.0
  0
LINE
  5
534
330
1F
100
AcDbEntity
  8
Sichtbare_Kanten_TC_020513_DIN_
  6
Continuous
 62
     7
100
AcDbLine
 10
98.88740551460336
 20
95.79316741262753
 30
0.0
 11
98.88740551460336
 21
91.52716730156553
 31
0.0
  0
LINE
  5
535
330
1F
100
AcDbEntity
  8
Sichtbare_Kanten_TC_020513_DIN_
  6
Continuous
 62
     7
100
AcDbLine
 10
97.63740551460336
 20
94.87174084279852
 30
0.0
 11
98.43708552922845
 21
95.94273981469152
 31
0.0
  0
LINE
  5
536
330
1F
100
AcDbEntity
  8
Sichtbare_Kanten_TC_020513_DIN_
  6
Continuous
 62
     7
100
AcDbLine
 10
96.83772549997838
 20
95.94273981469152
 30
0.0
 11
97.63740551460336
 21
94.87174084279852
 31
0.0
  0
LINE
  5
537
330
1F
100
AcDbEntity
  8
Sichtbare_Kanten_TC_020513_DIN_
  6
Continuous
 62
     7
100
AcDbLine
 10
96.38740551460336
 20
92.67016735709552
 30
0.0
 11
96.38740551460336
 21
95.79316741262753
 31
0.0
  0
LINE
  5
538
330
1F
100
AcDbEntity
  8
Sichtbare_Kanten_TC_020513_DIN_
  6
Continuous
 62
     7
100
AcDbLine
 10
44.63740551460336
 20
65.66016735709562
 30
0.0
 11
44.63740551460336
 21
69.66016735709562
 31
0.0
  0
LINE
  5
539
330
1F
100
AcDbEntity
  8
Sichtbare_Kanten_TC_020513_DIN_
  6
Continuous
 62
     7
100
AcDbLine
 10
150.6374055146034
 20
65.66016735709562
 30
0.0
 11
44.63740551460336
 21
65.66016735709562
 31
0.0
  0
LINE
  5
53A
330
1F
100
AcDbEntity
  8
Sichtbare_Kanten_TC_020513_DIN_
  6
Continuous
 62
     7
100
AcDbLine
 10
150.6374055146034
 20
65.66016735709562
 30
0.0
 11
150.6374055146034
 21
69.66016735709562
 31
0.0
  0
LINE
  5
53B
330
1F
100
AcDbEntity
  8
Sichtbare_Kanten_TC_020513_DIN_
  6
Continuous
 62
     7
100
AcDbLine
 10
169.6374055146034
 20
65.66016735709562
 30
0.0
 11
160.6374055146034
 21
65.66016735709562
 31
0.0
  0
LINE
  5
53C
330
1F
100
AcDbEntity
  8
Sichtbare_Kanten_TC_020513_DIN_
  6
Continuous
 62
     7
100
AcDbLine
 10
160.6374055146034
 20
65.66016735709562
 30
0.0
 11
150.6374055146034
 21
65.66016735709562
 31
0.0
  0
LINE
  5
53D
330
1F
100
AcDbEntity
  8
Sichtbare_Kanten_TC_020513_DIN_
  6
Continuous
 62
     7
100
AcDbLine
 10
44.63740551460336
 20
65.66016735709562
 30
0.0
 11
34.63740551460336
 21
65.66016735709562
 31
0.0
  0
LINE
  5
53E
330
1F
100
AcDbEntity
  8
Sichtbare_Kanten_TC_020513_DIN_
  6
Continuous
 62
     7
100
AcDbLine
 10
34.63740551460336
 20
65.66016735709562
 30
0.0
 11
25.63740551460336
 21
65.66016735709562
 31
0.0
  0
LINE
  5
53F
330
1F
100
AcDbEntity
  8
Sichtbare_Kanten_TC_020513_DIN_
  6
Continuous
 62
     7
100
AcDbLine
 10
34.63740551460336
 20
69.66016735709562
 30
0.0
 11
25.63740551460336
 21
69.66016735709562
 31
0.0
  0
LINE
  5
540
330
1F
100
AcDbEntity
  8
Sichtbare_Kanten_TC_020513_DIN_
  6
Continuous
 62
     7
100
AcDbLine
 10
44.63740551460336
 20
69.66016735709562
 30
0.0
 11
34.63740551460336
 21
69.66016735709562
 31
0.0
  0
LINE
  5
541
330
1F
100
AcDbEntity
  8
Sichtbare_Kanten_TC_020513_DIN_
  6
Continuous
 62
     7
100
AcDbLine
 10
169.6374055146034
 20
65.66016735709562
 30
0.0
 11
169.6374055146034
 21
69.66016735709562
 31
0.0
  0
LINE
  5
542
330
1F
100
AcDbEntity
  8
Sichtbare_Kanten_TC_020513_DIN_
  6
Continuous
 62
     7
100
AcDbLine
 10
160.6374055146034
 20
69.66016735709562
 30
0.0
 11
150.6374055146034
 21
69.66016735709562
 31
0.0
  0
LINE
  5
543
330
1F
100
AcDbEntity
  8
Sichtbare_Kanten_TC_020513_DIN_
  6
Continuous
 62
     7
100
AcDbLine
 10
169.6374055146034
 20
69.66016735709562
 30
0.0
 11
160.6374055146034
 21
69.66016735709562
 31
0.0
  0
LINE
  5
544
330
1F
100
AcDbEntity
  8
Sichtbare_Kanten_TC_020513_DIN_
  6
Continuous
 62
     7
100
AcDbLine
 10
160.6374055146034
 20
65.66016735709562
 30
0.0
 11
160.6374055146034
 21
69.66016735709562
 31
0.0
  0
LINE
  5
545
330
1F
100
AcDbEntity
  8
Sichtbare_Kanten_TC_020513_DIN_
  6
Continuous
 62
     7
100
AcDbLine
 10
34.63740551460336
 20
65.66016735709562
 30
0.0
 11
34.63740551460336
 21
69.66016735709562
 31
0.0
  0
LINE
  5
546
330
1F
100
AcDbEntity
  8
Sichtbare_Kanten_TC_020513_DIN_
  6
Continuous
 62
     7
100
AcDbLine
 10
25.63740551460336
 20
65.66016735709562
 30
0.0
 11
25.63740551460336
 21
69.66016735709562
 31
0.0
  0
LINE
  5
547
330
1F
100
AcDbEntity
  8
Sichtbare_Kanten_TC_020513_DIN_
  6
Continuous
 62
     7
100
AcDbLine
 10
151.8874055146034
 20
124.6601673570955
 30
0.0
 11
144.5217387065974
 21
124.6601673570955
 31
0.0
  0
LINE
  5
548
330
1F
100
AcDbEntity
  8
Sichtbare_Kanten_TC_020513_DIN_
  6
Continuous
 62
     7
100
AcDbLine
 10
128.8128501942665
 20
124.6601673570955
 30
0.0
 11
66.46196083494038
 21
124.6601673570955
 31
0.0
  0
LINE
  5
549
330
1F
100
AcDbEntity
  8
Sichtbare_Kanten_TC_020513_DIN_
  6
Continuous
 62
     7
100
AcDbLine
 10
50.7530723226094
 20
124.6601673570955
 30
0.0
 11
43.38740551460336
 21
124.6601673570955
 31
0.0
  0
LINE
  5
54A
330
1F
100
AcDbEntity
  8
Sichtbare_Kanten_TC_020513_DIN_
  6
Continuous
 62
     7
100
AcDbLine
 10
157.8874055146034
 20
69.66016735709562
 30
0.0
 11
157.8874055146034
 21
115.6601673570955
 31
0.0
  0
LINE
  5
54B
330
1F
100
AcDbEntity
  8
Sichtbare_Kanten_TC_020513_DIN_
  6
Continuous
 62
     7
100
AcDbLine
 10
157.8874055146034
 20
122.6601673570955
 30
0.0
 11
157.8874055146034
 21
124.6601673570955
 31
0.0
  0
LINE
  5
54C
330
1F
100
AcDbEntity
  8
Sichtbare_Kanten_TC_020513_DIN_
  6
Continuous
 62
     7
100
AcDbLine
 10
37.38740551460336
 20
69.66016735709562
 30
0.0
 11
37.38740551460336
 21
115.6601673570955
 31
0.0
  0
LINE
  5
54D
330
1F
100
AcDbEntity
  8
Sichtbare_Kanten_TC_020513_DIN_
  6
Continuous
 62
     7
100
AcDbLine
 10
37.38740551460336
 20
122.6601673570955
 30
0.0
 11
37.38740551460336
 21
124.6601673570955
 31
0.0
  0
LINE
  5
54E
330
1F
100
AcDbEntity
  8
Sichtbare_Kanten_TC_020513_DIN_
  6
Continuous
 62
     7
100
AcDbLine
 10
37.38740551460336
 20
124.6601673570955
 30
0.0
 11
43.38740551460336
 21
124.6601673570955
 31
0.0
  0
LINE
  5
54F
330
1F
100
AcDbEntity
  8
Sichtbare_Kanten_TC_020513_DIN_
  6
Continuous
 62
     7
100
AcDbLine
 10
151.8874055146034
 20
124.6601673570955
 30
0.0
 11
157.8874055146034
 21
124.6601673570955
 31
0.0
  0
LINE
  5
550
330
1F
100
AcDbEntity
  8
Sichtbare_Kanten_TC_020513_DIN_
  6
Continuous
 62
     7
100
AcDbLine
 10
25.63740551460336
 20
85.05016735709552
 30
0.0
 11
25.63740551460336
 21
69.66016735709562
 31
0.0
  0
LINE
  5
551
330
1F
100
AcDbEntity
  8
Sichtbare_Kanten_TC_020513_DIN_
  6
Continuous
 62
     7
100
AcDbLine
 10
25.63740551460336
 20
85.05016735709552
 30
0.0
 11
25.63740551460336
 21
100.1901673570955
 31
0.0
  0
LINE
  5
552
330
1F
100
AcDbEntity
  8
Sichtbare_Kanten_TC_020513_DIN_
  6
Continuous
 62
     7
100
AcDbLine
 10
37.38740551460336
 20
100.1901673570955
 30
0.0
 11
25.63740551460336
 21
100.1901673570955
 31
0.0
  0
LINE
  5
553
330
1F
100
AcDbEntity
  8
Sichtbare_Kanten_TC_020513_DIN_
  6
Continuous
 62
     7
100
AcDbLine
 10
169.6374055146034
 20
85.05016735709552
 30
0.0
 11
169.6374055146034
 21
99.60216735709552
 31
0.0
  0
LINE
  5
554
330
1F
100
AcDbEntity
  8
Sichtbare_Kanten_TC_020513_DIN_
  6
Continuous
 62
     7
100
AcDbLine
 10
169.6374055146034
 20
85.05016735709552
 30
0.0
 11
169.6374055146034
 21
70.49816735709562
 31
0.0
  0
LINE
  5
555
330
1F
100
AcDbEntity
  8
Sichtbare_Kanten_TC_020513_DIN_
  6
Continuous
 62
     7
100
AcDbLine
 10
169.6374055146034
 20
100.1901673570955
 30
0.0
 11
157.8874055146034
 21
100.1901673570955
 31
0.0
  0
LINE
  5
556
330
1F
100
AcDbEntity
  8
Sichtbare_Kanten_TC_020513_DIN_
  6
Continuous
 62
     7
100
AcDbLine
 10
37.5874055146034
 20
128.6601673570955
 30
0.0
 11
37.5874055146034
 21
124.6601673570955
 31
0.0
  0
LINE
  5
557
330
1F
100
AcDbEntity
  8
Sichtbare_Kanten_TC_020513_DIN_
  6
Continuous
 62
     7
100
AcDbLine
 10
43.38740551460336
 20
128.6601673570955
 30
0.0
 11
37.5874055146034
 21
128.6601673570955
 31
0.0
  0
LINE
  5
558
330
1F
100
AcDbEntity
  8
Sichtbare_Kanten_TC_020513_DIN_
  6
Continuous
 62
     7
100
AcDbLine
 10
43.38740551460336
 20
128.6601673570955
 30
0.0
 11
46.00023855242438
 21
128.6601673570955
 31
0.0
  0
LINE
  5
559
330
1F
100
AcDbEntity
  8
Sichtbare_Kanten_TC_020513_DIN_
  6
Continuous
 62
     7
100
AcDbLine
 10
57.13740551460336
 20
128.6601673570955
 30
0.0
 11
138.1374055146034
 21
128.6601673570955
 31
0.0
  0
LINE
  5
55A
330
1F
100
AcDbEntity
  8
Sichtbare_Kanten_TC_020513_DIN_
  6
Continuous
 62
     7
100
AcDbLine
 10
149.2745724767814
 20
128.6601673570955
 30
0.0
 11
151.8874055146034
 21
128.6601673570955
 31
0.0
  0
LINE
  5
55B
330
1F
100
AcDbEntity
  8
Sichtbare_Kanten_TC_020513_DIN_
  6
Continuous
 62
     7
100
AcDbLine
 10
157.6874055146034
 20
128.6601673570955
 30
0.0
 11
157.6874055146034
 21
124.6601673570955
 31
0.0
  0
LINE
  5
55C
330
1F
100
AcDbEntity
  8
Sichtbare_Kanten_TC_020513_DIN_
  6
Continuous
 62
     7
100
AcDbLine
 10
157.6874055146034
 20
128.6601673570955
 30
0.0
 11
151.8874055146034
 21
128.6601673570955
 31
0.0
  0
LINE
  5
55D
330
1F
100
AcDbEntity
  8
Sichtbare_Kanten_TC_020513_DIN_
  6
Continuous
 62
     7
100
AcDbLine
 10
166.8262944034923
 20
109.4435300545045
 30
0.0
 11
169.9374055146034
 21
109.4435300545045
 31
0.0
  0
LINE
  5
55E
330
1F
100
AcDbEntity
  8
Sichtbare_Kanten_TC_020513_DIN_
  6
Continuous
 62
     7
100
AcDbLine
 10
166.8262944034923
 20
109.4435300545045
 30
0.0
 11
166.4374055146034
 21
109.4435300545045
 31
0.0
  0
LINE
  5
55F
330
1F
100
AcDbEntity
  8
Sichtbare_Kanten_TC_020513_DIN_
  6
Continuous
 62
     7
100
AcDbLine
 10
159.4374055146034
 20
109.4435300545045
 30
0.0
 11
159.3997505995954
 21
109.4435300545045
 31
0.0
  0
LINE
  5
560
330
1F
100
AcDbEntity
  8
Sichtbare_Kanten_TC_020513_DIN_
  6
Continuous
 62
     7
100
AcDbLine
 10
169.9374055146034
 20
109.4435300545045
 30
0.0
 11
169.9374055146034
 21
110.8435300545045
 31
0.0
  0
LINE
  5
561
330
1F
100
AcDbEntity
  8
Sichtbare_Kanten_TC_020513_DIN_
  6
Continuous
 62
     7
100
AcDbLine
 10
159.4374055146034
 20
110.8435300545045
 30
0.0
 11
159.3997505995954
 21
110.8435300545045
 31
0.0
  0
LINE
  5
562
330
1F
100
AcDbEntity
  8
Sichtbare_Kanten_TC_020513_DIN_
  6
Continuous
 62
     7
100
AcDbLine
 10
166.8262944034923
 20
110.8435300545045
 30
0.0
 11
166.4374055146034
 21
110.8435300545045
 31
0.0
  0
LINE
  5
563
330
1F
100
AcDbEntity
  8
Sichtbare_Kanten_TC_020513_DIN_
  6
Continuous
 62
     7
100
AcDbLine
 10
166.8262944034923
 20
110.8435300545045
 30
0.0
 11
169.9374055146034
 21
110.8435300545045
 31
0.0
  0
LINE
  5
564
330
1F
100
AcDbEntity
  8
Sichtbare_Kanten_TC_020513_DIN_
  6
Continuous
 62
     7
100
AcDbLine
 10
166.4374055146034
 20
112.2435300545045
 30
0.0
 11
166.4374055146034
 21
114.6601673570955
 31
0.0
  0
LINE
  5
565
330
1F
100
AcDbEntity
  8
Sichtbare_Kanten_TC_020513_DIN_
  6
Continuous
 62
     7
100
AcDbLine
 10
158.4374055146034
 20
122.6601673570955
 30
0.0
 11
145.1374055146034
 21
122.6601673570955
 31
0.0
  0
LINE
  5
566
330
1F
100
AcDbEntity
  8
Sichtbare_Kanten_TC_020513_DIN_
  6
Continuous
 62
     7
100
AcDbLine
 10
128.1374055146034
 20
121.6601673570955
 30
0.0
 11
128.1374055146034
 21
108.1601673570955
 31
0.0
  0
LINE
  5
567
330
1F
100
AcDbEntity
  8
Sichtbare_Kanten_TC_020513_DIN_
  6
Continuous
 62
     7
100
AcDbLine
 10
147.1374055146034
 20
115.6601673570955
 30
0.0
 11
158.4374055146034
 21
115.6601673570955
 31
0.0
  0
LINE
  5
568
330
1F
100
AcDbEntity
  8
Sichtbare_Kanten_TC_020513_DIN_
  6
Continuous
 62
     7
100
AcDbLine
 10
159.4374055146034
 20
114.6601673570955
 30
0.0
 11
159.4374055146034
 21
112.2435300545045
 31
0.0
  0
LINE
  5
569
330
1F
100
AcDbEntity
  8
Sichtbare_Kanten_TC_020513_DIN_
  6
Continuous
 62
     7
100
AcDbLine
 10
159.2997505995954
 20
108.5058751394975
 30
0.0
 11
157.8997505995954
 21
108.5058751394975
 31
0.0
  0
LINE
  5
56A
330
1F
100
AcDbEntity
  8
Sichtbare_Kanten_TC_020513_DIN_
  6
Continuous
 62
     7
100
AcDbLine
 10
157.8997505995954
 20
109.3435300545045
 30
0.0
 11
157.8997505995954
 21
108.5058751394975
 31
0.0
  0
LINE
  5
56B
330
1F
100
AcDbEntity
  8
Sichtbare_Kanten_TC_020513_DIN_
  6
Continuous
 62
     7
100
AcDbLine
 10
159.2997505995954
 20
109.3435300545045
 30
0.0
 11
159.2997505995954
 21
108.5058751394975
 31
0.0
  0
LINE
  5
56C
330
1F
100
AcDbEntity
  8
Sichtbare_Kanten_TC_020513_DIN_
  6
Continuous
 62
     7
100
AcDbLine
 10
166.4374055146034
 20
109.4435300545045
 30
0.0
 11
159.4374055146034
 21
109.4435300545045
 31
0.0
  0
LINE
  5
56D
330
1F
100
AcDbEntity
  8
Sichtbare_Kanten_TC_020513_DIN_
  6
Continuous
 62
     7
100
AcDbLine
 10
159.4374055146034
 20
109.4435300545045
 30
0.0
 11
159.4374055146034
 21
112.2435300545045
 31
0.0
  0
LINE
  5
56E
330
1F
100
AcDbEntity
  8
Sichtbare_Kanten_TC_020513_DIN_
  6
Continuous
 62
     7
100
AcDbLine
 10
166.4374055146034
 20
112.2435300545045
 30
0.0
 11
166.4374055146034
 21
109.4435300545045
 31
0.0
  0
LINE
  5
56F
330
1F
100
AcDbEntity
  8
Sichtbare_Kanten_TC_020513_DIN_
  6
Continuous
 62
     7
100
AcDbLine
 10
35.8374055146034
 20
109.4435300545045
 30
0.0
 11
35.87506042961041
 21
109.4435300545045
 31
0.0
  0
LINE
  5
570
330
1F
100
AcDbEntity
  8
Sichtbare_Kanten_TC_020513_DIN_
  6
Continuous
 62
     7
100
AcDbLine
 10
28.44851662571438
 20
109.4435300545045
 30
0.0
 11
28.8374055146034
 21
109.4435300545045
 31
0.0
  0
LINE
  5
571
330
1F
100
AcDbEntity
  8
Sichtbare_Kanten_TC_020513_DIN_
  6
Continuous
 62
     7
100
AcDbLine
 10
28.44851662571438
 20
109.4435300545045
 30
0.0
 11
25.3374055146034
 21
109.4435300545045
 31
0.0
  0
LINE
  5
572
330
1F
100
AcDbEntity
  8
Sichtbare_Kanten_TC_020513_DIN_
  6
Continuous
 62
     7
100
AcDbLine
 10
35.97506042961044
 20
108.5058751394975
 30
0.0
 11
37.37506042961041
 21
108.5058751394975
 31
0.0
  0
LINE
  5
573
330
1F
100
AcDbEntity
  8
Sichtbare_Kanten_TC_020513_DIN_
  6
Continuous
 62
     7
100
AcDbLine
 10
37.37506042961041
 20
109.3435300545045
 30
0.0
 11
37.37506042961041
 21
108.5058751394975
 31
0.0
  0
LINE
  5
574
330
1F
100
AcDbEntity
  8
Sichtbare_Kanten_TC_020513_DIN_
  6
Continuous
 62
     7
100
AcDbLine
 10
35.97506042961044
 20
109.3435300545045
 30
0.0
 11
35.97506042961044
 21
108.5058751394975
 31
0.0
  0
LINE
  5
575
330
1F
100
AcDbEntity
  8
Sichtbare_Kanten_TC_020513_DIN_
  6
Continuous
 62
     7
100
AcDbLine
 10
35.8374055146034
 20
110.8435300545045
 30
0.0
 11
35.87506042961041
 21
110.8435300545045
 31
0.0
  0
LINE
  5
576
330
1F
100
AcDbEntity
  8
Sichtbare_Kanten_TC_020513_DIN_
  6
Continuous
 62
     7
100
AcDbLine
 10
28.44851662571438
 20
110.8435300545045
 30
0.0
 11
25.3374055146034
 21
110.8435300545045
 31
0.0
  0
LINE
  5
577
330
1F
100
AcDbEntity
  8
Sichtbare_Kanten_TC_020513_DIN_
  6
Continuous
 62
     7
100
AcDbLine
 10
28.44851662571438
 20
110.8435300545045
 30
0.0
 11
28.8374055146034
 21
110.8435300545045
 31
0.0
  0
LINE
  5
578
330
1F
100
AcDbEntity
  8
Sichtbare_Kanten_TC_020513_DIN_
  6
Continuous
 62
     7
100
AcDbLine
 10
35.8374055146034
 20
114.6601673570955
 30
0.0
 11
35.8374055146034
 21
112.2435300545045
 31
0.0
  0
LINE
  5
579
330
1F
100
AcDbEntity
  8
Sichtbare_Kanten_TC_020513_DIN_
  6
Continuous
 62
     7
100
AcDbLine
 10
48.13740551460336
 20
115.6601673570955
 30
0.0
 11
36.8374055146034
 21
115.6601673570955
 31
0.0
  0
LINE
  5
57A
330
1F
100
AcDbEntity
  8
Sichtbare_Kanten_TC_020513_DIN_
  6
Continuous
 62
     7
100
AcDbLine
 10
67.13740551460336
 20
121.6601673570955
 30
0.0
 11
67.13740551460336
 21
108.1601673570955
 31
0.0
  0
LINE
  5
57B
330
1F
100
AcDbEntity
  8
Sichtbare_Kanten_TC_020513_DIN_
  6
Continuous
 62
     7
100
AcDbLine
 10
36.8374055146034
 20
122.6601673570955
 30
0.0
 11
50.13740551460336
 21
122.6601673570955
 31
0.0
  0
LINE
  5
57C
330
1F
100
AcDbEntity
  8
Sichtbare_Kanten_TC_020513_DIN_
  6
Continuous
 62
     7
100
AcDbLine
 10
28.8374055146034
 20
112.2435300545045
 30
0.0
 11
28.8374055146034
 21
114.6601673570955
 31
0.0
  0
LINE
  5
57D
330
1F
100
AcDbEntity
  8
Sichtbare_Kanten_TC_020513_DIN_
  6
Continuous
 62
     7
100
AcDbLine
 10
25.3374055146034
 20
109.4435300545045
 30
0.0
 11
25.3374055146034
 21
110.8435300545045
 31
0.0
  0
LINE
  5
57E
330
1F
100
AcDbEntity
  8
Sichtbare_Kanten_TC_020513_DIN_
  6
Continuous
 62
     7
100
AcDbLine
 10
38.11195998817442
 20
141.5036286258855
 30
0.0
 11
34.77076821201246
 21
139.4564089412875
 31
0.0
  0
LINE
  5
57F
330
1F
100
AcDbEntity
  8
Sichtbare_Kanten_TC_020513_DIN_
  6
Continuous
 62
     7
100
AcDbLine
 10
64.63740551460336
 20
111.5225124420885
 30
0.0
 11
64.63740551460336
 21
111.5615551759615
 31
0.0
  0
LINE
  5
580
330
1F
100
AcDbEntity
  8
Sichtbare_Kanten_TC_020513_DIN_
  6
Continuous
 62
     7
100
AcDbLine
 10
57.13740551460336
 20
127.9847226774325
 30
0.0
 11
57.13740551460336
 21
129.6601673570955
 31
0.0
  0
LINE
  5
581
330
1F
100
AcDbEntity
  8
Sichtbare_Kanten_TC_020513_DIN_
  6
Continuous
 62
     7
100
AcDbLine
 10
57.13740551460336
 20
129.6601673570955
 30
0.0
 11
54.90852757826741
 21
132.8753018877945
 31
0.0
  0
LINE
  5
582
330
1F
100
AcDbEntity
  8
Sichtbare_Kanten_TC_020513_DIN_
  6
Continuous
 62
     7
100
AcDbLine
 10
54.85040355893347
 20
133.3333776241095
 30
0.0
 11
55.91604856742737
 21
136.2190597602235
 31
0.0
  0
LINE
  5
583
330
1F
100
AcDbEntity
  8
Sichtbare_Kanten_TC_020513_DIN_
  6
Continuous
 62
     7
100
AcDbLine
 10
64.39768719543139
 20
146.6601673570955
 30
0.0
 11
56.39768719543139
 21
146.6601673570955
 31
0.0
  0
LINE
  5
584
330
1F
100
AcDbEntity
  8
Sichtbare_Kanten_TC_020513_DIN_
  6
Continuous
 62
     7
100
AcDbLine
 10
34.77076821201246
 20
129.0211526920905
 30
0.0
 11
36.13740551460336
 21
129.0211526920905
 31
0.0
  0
LINE
  5
585
330
1F
100
AcDbEntity
  8
Sichtbare_Kanten_TC_020513_DIN_
  6
Continuous
 62
     7
100
AcDbLine
 10
36.92170504078939
 20
129.4007703477055
 30
0.0
 11
39.74525575151046
 21
132.9703585292885
 31
0.0
  0
LINE
  5
586
330
1F
100
AcDbEntity
  8
Sichtbare_Kanten_TC_020513_DIN_
  6
Continuous
 62
     7
100
AcDbLine
 10
40.44759668679541
 20
133.0523171201885
 30
0.0
 11
50.5613535760304
 21
125.0523171201885
 31
0.0
  0
LINE
  5
587
330
1F
100
AcDbEntity
  8
Sichtbare_Kanten_TC_020513_DIN_
  6
Continuous
 62
     7
100
AcDbLine
 10
50.74925975288346
 20
124.7037452284695
 30
0.0
 11
50.87636010820944
 21
123.2509815193985
 31
0.0
  0
LINE
  5
588
330
1F
100
AcDbEntity
  8
Sichtbare_Kanten_TC_020513_DIN_
  6
Continuous
 62
     7
100
AcDbLine
 10
61.70126485296846
 20
111.6601673570955
 30
0.0
 11
61.73740551460339
 21
111.6601673570955
 31
0.0
  0
LINE
  5
589
330
1F
100
AcDbEntity
  8
Sichtbare_Kanten_TC_020513_DIN_
  6
Continuous
 62
     7
100
AcDbLine
 10
61.73740551460339
 20
111.6601673570955
 30
0.0
 11
61.73740551460339
 21
111.5225124420885
 31
0.0
  0
LINE
  5
58A
330
1F
100
AcDbEntity
  8
Sichtbare_Kanten_TC_020513_DIN_
  6
Continuous
 62
     7
100
AcDbLine
 10
33.37076821201237
 20
128.8358574533665
 30
0.0
 11
33.37076821201237
 21
127.4609756635935
 31
0.0
  0
LINE
  5
58B
330
1F
100
AcDbEntity
  8
Sichtbare_Kanten_TC_020513_DIN_
  6
Continuous
 62
     7
100
AcDbLine
 10
31.97076821201239
 20
127.4609756635935
 30
0.0
 11
31.97076821201239
 21
128.8358574533665
 31
0.0
  0
LINE
  5
58C
330
1F
100
AcDbEntity
  8
Sichtbare_Kanten_TC_020513_DIN_
  6
Continuous
 62
     7
100
AcDbLine
 10
33.37076821201237
 20
129.0211526920905
 30
0.0
 11
33.37076821201237
 21
128.8358574533665
 31
0.0
  0
LINE
  5
58D
330
1F
100
AcDbEntity
  8
Sichtbare_Kanten_TC_020513_DIN_
  6
Continuous
 62
     7
100
AcDbLine
 10
31.97076821201239
 20
128.8358574533665
 30
0.0
 11
31.97076821201239
 21
129.0211526920905
 31
0.0
  0
LINE
  5
58E
330
1F
100
AcDbEntity
  8
Sichtbare_Kanten_TC_020513_DIN_
  6
Continuous
 62
     7
100
AcDbLine
 10
25.63649281921636
 20
140.2377899946815
 30
0.0
 11
24.15413090942144
 21
140.2377899946815
 31
0.0
  0
LINE
  5
58F
330
1F
100
AcDbEntity
  8
Sichtbare_Kanten_TC_020513_DIN_
  6
Continuous
 62
     7
100
AcDbLine
 10
24.15413090942144
 20
138.8377899946815
 30
0.0
 11
24.15413090942144
 21
140.2377899946815
 31
0.0
  0
LINE
  5
590
330
1F
100
AcDbEntity
  8
Sichtbare_Kanten_TC_020513_DIN_
  6
Continuous
 62
     7
100
AcDbLine
 10
24.15413090942144
 20
138.8377899946815
 30
0.0
 11
25.63649281921636
 21
138.8377899946815
 31
0.0
  0
LINE
  5
591
330
1F
100
AcDbEntity
  8
Sichtbare_Kanten_TC_020513_DIN_
  6
Continuous
 62
     7
100
AcDbLine
 10
25.63649281921636
 20
140.2377899946815
 30
0.0
 11
30.57076821201241
 21
140.2377899946815
 31
0.0
  0
LINE
  5
592
330
1F
100
AcDbEntity
  8
Sichtbare_Kanten_TC_020513_DIN_
  6
Continuous
 62
     7
100
AcDbLine
 10
30.57076821201241
 20
138.8377899946815
 30
0.0
 11
25.63649281921636
 21
138.8377899946815
 31
0.0
  0
LINE
  5
593
330
1F
100
AcDbEntity
  8
Sichtbare_Kanten_TC_020513_DIN_
  6
Continuous
 62
     7
100
AcDbLine
 10
61.73740551460339
 20
111.4225124420885
 30
0.0
 11
61.73740551460339
 21
110.0225124420885
 31
0.0
  0
LINE
  5
594
330
1F
100
AcDbEntity
  8
Sichtbare_Kanten_TC_020513_DIN_
  6
Continuous
 62
     7
100
AcDbLine
 10
61.73740551460339
 20
110.0225124420885
 30
0.0
 11
62.23740551460339
 21
110.0225124420885
 31
0.0
  0
LINE
  5
595
330
1F
100
AcDbEntity
  8
Sichtbare_Kanten_TC_020513_DIN_
  6
Continuous
 62
     7
100
AcDbLine
 10
62.23740551460339
 20
111.4225124420885
 30
0.0
 11
61.73740551460339
 21
111.4225124420885
 31
0.0
  0
LINE
  5
596
330
1F
100
AcDbEntity
  8
Sichtbare_Kanten_TC_020513_DIN_
  6
Continuous
 62
     7
100
AcDbLine
 10
64.13740551460336
 20
110.0225124420885
 30
0.0
 11
62.23740551460339
 21
110.0225124420885
 31
0.0
  0
LINE
  5
597
330
1F
100
AcDbEntity
  8
Sichtbare_Kanten_TC_020513_DIN_
  6
Continuous
 62
     7
100
AcDbLine
 10
62.23740551460339
 20
111.4225124420885
 30
0.0
 11
64.13740551460336
 21
111.4225124420885
 31
0.0
  0
LINE
  5
598
330
1F
100
AcDbEntity
  8
Sichtbare_Kanten_TC_020513_DIN_
  6
Continuous
 62
     7
100
AcDbLine
 10
64.13740551460336
 20
110.0225124420885
 30
0.0
 11
64.63740551460336
 21
110.0225124420885
 31
0.0
  0
LINE
  5
599
330
1F
100
AcDbEntity
  8
Sichtbare_Kanten_TC_020513_DIN_
  6
Continuous
 62
     7
100
AcDbLine
 10
64.63740551460336
 20
111.4225124420885
 30
0.0
 11
64.63740551460336
 21
110.0225124420885
 31
0.0
  0
LINE
  5
59A
330
1F
100
AcDbEntity
  8
Sichtbare_Kanten_TC_020513_DIN_
  6
Continuous
 62
     7
100
AcDbLine
 10
64.63740551460336
 20
111.4225124420885
 30
0.0
 11
64.13740551460336
 21
111.4225124420885
 31
0.0
  0
LINE
  5
59B
330
1F
100
AcDbEntity
  8
Sichtbare_Kanten_TC_020513_DIN_
  6
Continuous
 62
     7
100
AcDbLine
 10
29.91336114147936
 20
119.4257972184165
 30
0.0
 11
30.5398343550674
 21
120.7692733604705
 31
0.0
  0
LINE
  5
59C
330
1F
100
AcDbEntity
  8
Sichtbare_Kanten_TC_020513_DIN_
  6
Continuous
 62
     7
100
AcDbLine
 10
29.27100345321645
 20
121.3609389269075
 30
0.0
 11
28.64453023962841
 21
120.0174627848535
 31
0.0
  0
LINE
  5
59D
330
1F
100
AcDbEntity
  8
Sichtbare_Kanten_TC_020513_DIN_
  6
Continuous
 62
     7
100
AcDbLine
 10
28.64453023962841
 20
120.0174627848535
 30
0.0
 11
29.91336114147936
 21
119.4257972184165
 31
0.0
  0
LINE
  5
59E
330
1F
100
AcDbEntity
  8
Sichtbare_Kanten_TC_020513_DIN_
  6
Continuous
 62
     7
100
AcDbLine
 10
29.27100345321645
 20
121.3609389269075
 30
0.0
 11
31.83959911386336
 21
126.8693100971565
 31
0.0
  0
LINE
  5
59F
330
1F
100
AcDbEntity
  8
Sichtbare_Kanten_TC_020513_DIN_
  6
Continuous
 62
     7
100
AcDbLine
 10
33.10843001571544
 20
126.2776445307195
 30
0.0
 11
30.5398343550674
 21
120.7692733604705
 31
0.0
  0
LINE
  5
5A0
330
1F
100
AcDbEntity
  8
Sichtbare_Kanten_TC_020513_DIN_
  6
Continuous
 62
     7
100
AcDbLine
 10
35.8374055146034
 20
109.4435300545045
 30
0.0
 11
28.8374055146034
 21
109.4435300545045
 31
0.0
  0
LINE
  5
5A1
330
1F
100
AcDbEntity
  8
Sichtbare_Kanten_TC_020513_DIN_
  6
Continuous
 62
     7
100
AcDbLine
 10
28.8374055146034
 20
109.4435300545045
 30
0.0
 11
28.8374055146034
 21
112.2435300545045
 31
0.0
  0
LINE
  5
5A2
330
1F
100
AcDbEntity
  8
Sichtbare_Kanten_TC_020513_DIN_
  6
Continuous
 62
     7
100
AcDbLine
 10
35.8374055146034
 20
112.2435300545045
 30
0.0
 11
35.8374055146034
 21
109.4435300545045
 31
0.0
  0
LINE
  5
5A3
330
1F
100
AcDbEntity
  8
Sichtbare_Kanten_TC_020513_DIN_
  6
Continuous
 62
     7
100
AcDbLine
 10
162.8769228265814
 20
126.6089756196025
 30
0.0
 11
162.1663810134914
 21
126.2776445307195
 31
0.0
  0
LINE
  5
5A4
330
1F
100
AcDbEntity
  8
Sichtbare_Kanten_TC_020513_DIN_
  6
Continuous
 62
     7
100
AcDbLine
 10
163.4352119153425
 20
126.8693100971565
 30
0.0
 11
162.8769228265814
 21
126.6089756196025
 31
0.0
  0
LINE
  5
5A5
330
1F
100
AcDbEntity
  8
Sichtbare_Kanten_TC_020513_DIN_
  6
Continuous
 62
     7
100
AcDbLine
 10
162.6880389642574
 20
127.4609756635935
 30
0.0
 11
163.3040428171944
 21
127.4609756635935
 31
0.0
  0
LINE
  5
5A6
330
1F
100
AcDbEntity
  8
Sichtbare_Kanten_TC_020513_DIN_
  6
Continuous
 62
     7
100
AcDbLine
 10
161.9040428171945
 20
127.4609756635935
 30
0.0
 11
162.6880389642574
 21
127.4609756635935
 31
0.0
  0
LINE
  5
5A7
330
1F
100
AcDbEntity
  8
Sichtbare_Kanten_TC_020513_DIN_
  6
Continuous
 62
     7
100
AcDbLine
 10
130.6374055146034
 20
111.5225124420885
 30
0.0
 11
130.6374055146034
 21
111.4225124420885
 31
0.0
  0
LINE
  5
5A8
330
1F
100
AcDbEntity
  8
Sichtbare_Kanten_TC_020513_DIN_
  6
Continuous
 62
     7
100
AcDbLine
 10
133.5374055146035
 20
111.4225124420885
 30
0.0
 11
133.5374055146035
 21
111.5225124420885
 31
0.0
  0
LINE
  5
5A9
330
1F
100
AcDbEntity
  8
Sichtbare_Kanten_TC_020513_DIN_
  6
Continuous
 62
     7
100
AcDbLine
 10
133.5374055146035
 20
111.6601673570955
 30
0.0
 11
133.5374055146035
 21
111.5225124420885
 31
0.0
  0
LINE
  5
5AA
330
1F
100
AcDbEntity
  8
Sichtbare_Kanten_TC_020513_DIN_
  6
Continuous
 62
     7
100
AcDbLine
 10
133.5735461762374
 20
111.6601673570955
 30
0.0
 11
133.5374055146035
 21
111.6601673570955
 31
0.0
  0
LINE
  5
5AB
330
1F
100
AcDbEntity
  8
Sichtbare_Kanten_TC_020513_DIN_
  6
Continuous
 62
     7
100
AcDbLine
 10
144.5255512763225
 20
124.7037452284695
 30
0.0
 11
144.3984509209974
 21
123.2509815193985
 31
0.0
  0
LINE
  5
5AC
330
1F
100
AcDbEntity
  8
Sichtbare_Kanten_TC_020513_DIN_
  6
Continuous
 62
     7
100
AcDbLine
 10
154.8272143424104
 20
133.0523171201885
 30
0.0
 11
144.7134574531764
 21
125.0523171201885
 31
0.0
  0
LINE
  5
5AD
330
1F
100
AcDbEntity
  8
Sichtbare_Kanten_TC_020513_DIN_
  6
Continuous
 62
     7
100
AcDbLine
 10
158.3531059884174
 20
129.4007703477055
 30
0.0
 11
155.5295552776964
 21
132.9703585292885
 31
0.0
  0
LINE
  5
5AE
330
1F
100
AcDbEntity
  8
Sichtbare_Kanten_TC_020513_DIN_
  6
Continuous
 62
     7
100
AcDbLine
 10
160.5040428171944
 20
129.0211526920905
 30
0.0
 11
159.1374055146034
 21
129.0211526920905
 31
0.0
  0
LINE
  5
5AF
330
1F
100
AcDbEntity
  8
Sichtbare_Kanten_TC_020513_DIN_
  6
Continuous
 62
     7
100
AcDbLine
 10
157.1628510410324
 20
141.5036286258855
 30
0.0
 11
160.5040428171944
 21
139.4564089412875
 31
0.0
  0
LINE
  5
5B0
330
1F
100
AcDbEntity
  8
Sichtbare_Kanten_TC_020513_DIN_
  6
Continuous
 62
     7
100
AcDbLine
 10
130.8771238337754
 20
146.6601673570955
 30
0.0
 11
138.8771238337754
 21
146.6601673570955
 31
0.0
  0
LINE
  5
5B1
330
1F
100
AcDbEntity
  8
Sichtbare_Kanten_TC_020513_DIN_
  6
Continuous
 62
     7
100
AcDbLine
 10
140.4244074702734
 20
133.3333776241095
 30
0.0
 11
139.3587624617795
 21
136.2190597602235
 31
0.0
  0
LINE
  5
5B2
330
1F
100
AcDbEntity
  8
Sichtbare_Kanten_TC_020513_DIN_
  6
Continuous
 62
     7
100
AcDbLine
 10
138.1374055146034
 20
129.6601673570955
 30
0.0
 11
140.3662834509394
 21
132.8753018877945
 31
0.0
  0
LINE
  5
5B3
330
1F
100
AcDbEntity
  8
Sichtbare_Kanten_TC_020513_DIN_
  6
Continuous
 62
     7
100
AcDbLine
 10
138.1374055146034
 20
127.9847226774325
 30
0.0
 11
138.1374055146034
 21
129.6601673570955
 31
0.0
  0
LINE
  5
5B4
330
1F
100
AcDbEntity
  8
Sichtbare_Kanten_TC_020513_DIN_
  6
Continuous
 62
     7
100
AcDbLine
 10
130.6374055146034
 20
111.5225124420885
 30
0.0
 11
130.6374055146034
 21
111.5615551759615
 31
0.0
  0
LINE
  5
5B5
330
1F
100
AcDbEntity
  8
Sichtbare_Kanten_TC_020513_DIN_
  6
Continuous
 62
     7
100
AcDbLine
 10
163.3040428171944
 20
127.4609756635935
 30
0.0
 11
163.3040428171944
 21
128.8358574533665
 31
0.0
  0
LINE
  5
5B6
330
1F
100
AcDbEntity
  8
Sichtbare_Kanten_TC_020513_DIN_
  6
Continuous
 62
     7
100
AcDbLine
 10
161.9040428171945
 20
128.8358574533665
 30
0.0
 11
161.9040428171945
 21
127.4609756635935
 31
0.0
  0
LINE
  5
5B7
330
1F
100
AcDbEntity
  8
Sichtbare_Kanten_TC_020513_DIN_
  6
Continuous
 62
     7
100
AcDbLine
 10
161.9040428171945
 20
129.0211526920905
 30
0.0
 11
161.9040428171945
 21
128.8358574533665
 31
0.0
  0
LINE
  5
5B8
330
1F
100
AcDbEntity
  8
Sichtbare_Kanten_TC_020513_DIN_
  6
Continuous
 62
     7
100
AcDbLine
 10
163.3040428171944
 20
128.8358574533665
 30
0.0
 11
163.3040428171944
 21
129.0211526920905
 31
0.0
  0
LINE
  5
5B9
330
1F
100
AcDbEntity
  8
Sichtbare_Kanten_TC_020513_DIN_
  6
Continuous
 62
     7
100
AcDbLine
 10
169.6383182099893
 20
140.2377899946815
 30
0.0
 11
171.1206801197844
 21
140.2377899946815
 31
0.0
  0
LINE
  5
5BA
330
1F
100
AcDbEntity
  8
Sichtbare_Kanten_TC_020513_DIN_
  6
Continuous
 62
     7
100
AcDbLine
 10
171.1206801197844
 20
138.8377899946815
 30
0.0
 11
169.6383182099893
 21
138.8377899946815
 31
0.0
  0
LINE
  5
5BB
330
1F
100
AcDbEntity
  8
Sichtbare_Kanten_TC_020513_DIN_
  6
Continuous
 62
     7
100
AcDbLine
 10
171.1206801197844
 20
138.8377899946815
 30
0.0
 11
171.1206801197844
 21
140.2377899946815
 31
0.0
  0
LINE
  5
5BC
330
1F
100
AcDbEntity
  8
Sichtbare_Kanten_TC_020513_DIN_
  6
Continuous
 62
     7
100
AcDbLine
 10
164.7040428171944
 20
138.8377899946815
 30
0.0
 11
169.6383182099893
 21
138.8377899946815
 31
0.0
  0
LINE
  5
5BD
330
1F
100
AcDbEntity
  8
Sichtbare_Kanten_TC_020513_DIN_
  6
Continuous
 62
     7
100
AcDbLine
 10
169.6383182099893
 20
140.2377899946815
 30
0.0
 11
164.7040428171944
 21
140.2377899946815
 31
0.0
  0
LINE
  5
5BE
330
1F
100
AcDbEntity
  8
Sichtbare_Kanten_TC_020513_DIN_
  6
Continuous
 62
     7
100
AcDbLine
 10
133.5374055146035
 20
110.0225124420885
 30
0.0
 11
133.0374055146035
 21
110.0225124420885
 31
0.0
  0
LINE
  5
5BF
330
1F
100
AcDbEntity
  8
Sichtbare_Kanten_TC_020513_DIN_
  6
Continuous
 62
     7
100
AcDbLine
 10
133.5374055146035
 20
111.4225124420885
 30
0.0
 11
133.5374055146035
 21
110.0225124420885
 31
0.0
  0
LINE
  5
5C0
330
1F
100
AcDbEntity
  8
Sichtbare_Kanten_TC_020513_DIN_
  6
Continuous
 62
     7
100
AcDbLine
 10
133.0374055146035
 20
111.4225124420885
 30
0.0
 11
133.5374055146035
 21
111.4225124420885
 31
0.0
  0
LINE
  5
5C1
330
1F
100
AcDbEntity
  8
Sichtbare_Kanten_TC_020513_DIN_
  6
Continuous
 62
     7
100
AcDbLine
 10
131.1374055146034
 20
110.0225124420885
 30
0.0
 11
133.0374055146035
 21
110.0225124420885
 31
0.0
  0
LINE
  5
5C2
330
1F
100
AcDbEntity
  8
Sichtbare_Kanten_TC_020513_DIN_
  6
Continuous
 62
     7
100
AcDbLine
 10
133.0374055146035
 20
111.4225124420885
 30
0.0
 11
131.1374055146034
 21
111.4225124420885
 31
0.0
  0
LINE
  5
5C3
330
1F
100
AcDbEntity
  8
Sichtbare_Kanten_TC_020513_DIN_
  6
Continuous
 62
     7
100
AcDbLine
 10
131.1374055146034
 20
110.0225124420885
 30
0.0
 11
130.6374055146034
 21
110.0225124420885
 31
0.0
  0
LINE
  5
5C4
330
1F
100
AcDbEntity
  8
Sichtbare_Kanten_TC_020513_DIN_
  6
Continuous
 62
     7
100
AcDbLine
 10
130.6374055146034
 20
111.4225124420885
 30
0.0
 11
131.1374055146034
 21
111.4225124420885
 31
0.0
  0
LINE
  5
5C5
330
1F
100
AcDbEntity
  8
Sichtbare_Kanten_TC_020513_DIN_
  6
Continuous
 62
     7
100
AcDbLine
 10
130.6374055146034
 20
111.4225124420885
 30
0.0
 11
130.6374055146034
 21
110.0225124420885
 31
0.0
  0
LINE
  5
5C6
330
1F
100
AcDbEntity
  8
Sichtbare_Kanten_TC_020513_DIN_
  6
Continuous
 62
     7
100
AcDbLine
 10
165.3614498877274
 20
119.4257972184165
 30
0.0
 11
164.7349766741384
 21
120.7692733604705
 31
0.0
  0
LINE
  5
5C7
330
1F
100
AcDbEntity
  8
Sichtbare_Kanten_TC_020513_DIN_
  6
Continuous
 62
     7
100
AcDbLine
 10
166.6302807895784
 20
120.0174627848535
 30
0.0
 11
165.3614498877274
 21
119.4257972184165
 31
0.0
  0
LINE
  5
5C8
330
1F
100
AcDbEntity
  8
Sichtbare_Kanten_TC_020513_DIN_
  6
Continuous
 62
     7
100
AcDbLine
 10
166.0038075759904
 20
121.3609389269075
 30
0.0
 11
166.6302807895784
 21
120.0174627848535
 31
0.0
  0
LINE
  5
5C9
330
1F
100
AcDbEntity
  8
Sichtbare_Kanten_TC_020513_DIN_
  6
Continuous
 62
     7
100
AcDbLine
 10
162.1663810134914
 20
126.2776445307195
 30
0.0
 11
164.7349766741384
 21
120.7692733604705
 31
0.0
  0
LINE
  5
5CA
330
1F
100
AcDbEntity
  8
Sichtbare_Kanten_TC_020513_DIN_
  6
Continuous
 62
     7
100
AcDbLine
 10
166.0038075759904
 20
121.3609389269075
 30
0.0
 11
163.4352119153425
 21
126.8693100971565
 31
0.0
  0
LINE
  5
5CB
330
1F
100
AcDbEntity
  8
Sichtbare_Kanten_TC_020513_DIN_
  6
Continuous
 62
     7
100
AcDbLine
 10
164.7040428171944
 20
139.4537911249635
 30
0.0
 11
164.7040428171944
 21
138.8377899946815
 31
0.0
  0
LINE
  5
5CC
330
1F
100
AcDbEntity
  8
Sichtbare_Kanten_TC_020513_DIN_
  6
Continuous
 62
     7
100
AcDbLine
 10
164.7040428171944
 20
140.2377899946815
 30
0.0
 11
164.7040428171944
 21
139.4537911249635
 31
0.0
  0
LINE
  5
5CD
330
1F
100
AcDbEntity
  8
Sichtbare_Kanten_TC_020513_DIN_
  6
Continuous
 62
     7
100
AcDbLine
 10
161.9965414647795
 20
139.0211526920905
 30
0.0
 11
162.9441917515484
 21
139.0211526920905
 31
0.0
  0
LINE
  5
5CE
330
1F
100
AcDbEntity
  8
Sichtbare_Kanten_TC_020513_DIN_
  6
Continuous
 62
     7
100
AcDbLine
 10
163.3040428171944
 20
129.0211526920905
 30
0.0
 11
160.5040428171944
 21
129.0211526920905
 31
0.0
  0
LINE
  5
5CF
330
1F
100
AcDbEntity
  8
Sichtbare_Kanten_TC_020513_DIN_
  6
Continuous
 62
     7
100
AcDbLine
 10
163.3040428171944
 20
138.3453628118605
 30
0.0
 11
163.3040428171944
 21
129.0211526920905
 31
0.0
  0
LINE
  5
5D0
330
1F
100
AcDbEntity
  8
Sichtbare_Kanten_TC_020513_DIN_
  6
Continuous
 62
     7
100
AcDbLine
 10
32.39788820262544
 20
126.6089756196025
 30
0.0
 11
31.83959911386336
 21
126.8693100971565
 31
0.0
  0
LINE
  5
5D1
330
1F
100
AcDbEntity
  8
Sichtbare_Kanten_TC_020513_DIN_
  6
Continuous
 62
     7
100
AcDbLine
 10
33.10843001571544
 20
126.2776445307195
 30
0.0
 11
32.39788820262544
 21
126.6089756196025
 31
0.0
  0
LINE
  5
5D2
330
1F
100
AcDbEntity
  8
Sichtbare_Kanten_TC_020513_DIN_
  6
Continuous
 62
     7
100
AcDbLine
 10
32.58677206494843
 20
127.4609756635935
 30
0.0
 11
33.37076821201237
 21
127.4609756635935
 31
0.0
  0
LINE
  5
5D3
330
1F
100
AcDbEntity
  8
Sichtbare_Kanten_TC_020513_DIN_
  6
Continuous
 62
     7
100
AcDbLine
 10
31.97076821201239
 20
127.4609756635935
 30
0.0
 11
32.58677206494843
 21
127.4609756635935
 31
0.0
  0
LINE
  5
5D4
330
1F
100
AcDbEntity
  8
Sichtbare_Kanten_TC_020513_DIN_
  6
Continuous
 62
     7
100
AcDbLine
 10
61.73740551460339
 20
111.5225124420885
 30
0.0
 11
61.73740551460339
 21
111.4225124420885
 31
0.0
  0
LINE
  5
5D5
330
1F
100
AcDbEntity
  8
Sichtbare_Kanten_TC_020513_DIN_
  6
Continuous
 62
     7
100
AcDbLine
 10
64.63740551460336
 20
111.4225124420885
 30
0.0
 11
64.63740551460336
 21
111.5225124420885
 31
0.0
  0
LINE
  5
5D6
330
1F
100
AcDbEntity
  8
Sichtbare_Kanten_TC_020513_DIN_
  6
Continuous
 62
     7
100
AcDbLine
 10
30.57076821201241
 20
139.4537911249625
 30
0.0
 11
30.57076821201241
 21
140.2377899946815
 31
0.0
  0
LINE
  5
5D7
330
1F
100
AcDbEntity
  8
Sichtbare_Kanten_TC_020513_DIN_
  6
Continuous
 62
     7
100
AcDbLine
 10
30.57076821201241
 20
138.8377899946815
 30
0.0
 11
30.57076821201241
 21
139.4537911249625
 31
0.0
  0
LINE
  5
5D8
330
1F
100
AcDbEntity
  8
Sichtbare_Kanten_TC_020513_DIN_
  6
Continuous
 62
     7
100
AcDbLine
 10
32.33061927765738
 20
139.0211526920905
 30
0.0
 11
33.27826956442635
 21
139.0211526920905
 31
0.0
  0
LINE
  5
5D9
330
1F
100
AcDbEntity
  8
Sichtbare_Kanten_TC_020513_DIN_
  6
Continuous
 62
     7
100
AcDbLine
 10
31.97076821201239
 20
129.0211526920905
 30
0.0
 11
31.97076821201239
 21
138.3453628118605
 31
0.0
  0
LINE
  5
5DA
330
1F
100
AcDbEntity
  8
Sichtbare_Kanten_TC_020513_DIN_
  6
Continuous
 62
     7
100
AcDbLine
 10
34.77076821201246
 20
129.0211526920905
 30
0.0
 11
31.97076821201239
 21
129.0211526920905
 31
0.0
  0
LINE
  5
5DB
330
1F
100
AcDbEntity
  8
Sichtbare_Kanten_TC_020513_DIN_
  6
Continuous
 62
     7
100
AcDbLine
 10
265.9189710240424
 20
65.66016735709562
 30
0.0
 11
208.9189710240424
 21
65.66016735709562
 31
0.0
  0
LINE
  5
5DC
330
1F
100
AcDbEntity
  8
Sichtbare_Kanten_TC_020513_DIN_
  6
Continuous
 62
     7
100
AcDbLine
 10
222.2789710240424
 20
69.66016735709562
 30
0.0
 11
208.9189710240424
 21
69.66016735709562
 31
0.0
  0
LINE
  5
5DD
330
1F
100
AcDbEntity
  8
Sichtbare_Kanten_TC_020513_DIN_
  6
Continuous
 62
     7
100
AcDbLine
 10
265.9189710240424
 20
69.66016735709562
 30
0.0
 11
252.5589710240424
 21
69.66016735709562
 31
0.0
  0
LINE
  5
5DE
330
1F
100
AcDbEntity
  8
Sichtbare_Kanten_TC_020513_DIN_
  6
Continuous
 62
     7
100
AcDbLine
 10
208.9189710240424
 20
65.66016735709562
 30
0.0
 11
208.9189710240424
 21
69.66016735709562
 31
0.0
  0
LINE
  5
5DF
330
1F
100
AcDbEntity
  8
Sichtbare_Kanten_TC_020513_DIN_
  6
Continuous
 62
     7
100
AcDbLine
 10
265.9189710240424
 20
65.66016735709562
 30
0.0
 11
265.9189710240424
 21
69.66016735709562
 31
0.0
  0
LINE
  5
5E0
330
1F
100
AcDbEntity
  8
Sichtbare_Kanten_TC_020513_DIN_
  6
Continuous
 62
     7
100
AcDbLine
 10
259.6689710240474
 20
69.66016735709562
 30
0.0
 11
259.6689710240474
 21
109.4435300545045
 31
0.0
  0
LINE
  5
5E1
330
1F
100
AcDbEntity
  8
Sichtbare_Kanten_TC_020513_DIN_
  6
Continuous
 62
     7
100
AcDbLine
 10
259.6689710240474
 20
110.8435300545045
 30
0.0
 11
259.6689710240474
 21
124.6601673570955
 31
0.0
  0
LINE
  5
5E2
330
1F
100
AcDbEntity
  8
Sichtbare_Kanten_TC_020513_DIN_
  6
Continuous
 62
     7
100
AcDbLine
 10
215.1689710240474
 20
124.6601673570955
 30
0.0
 11
221.1689710240464
 21
124.6601673570955
 31
0.0
  0
LINE
  5
5E3
330
1F
100
AcDbEntity
  8
Sichtbare_Kanten_TC_020513_DIN_
  6
Continuous
 62
     7
100
AcDbLine
 10
215.1689710240474
 20
69.66016735709562
 30
0.0
 11
215.1689710240474
 21
109.4435300545045
 31
0.0
  0
LINE
  5
5E4
330
1F
100
AcDbEntity
  8
Sichtbare_Kanten_TC_020513_DIN_
  6
Continuous
 62
     7
100
AcDbLine
 10
215.1689710240474
 20
110.8435300545045
 30
0.0
 11
215.1689710240474
 21
124.6601673570955
 31
0.0
  0
LINE
  5
5E5
330
1F
100
AcDbEntity
  8
Sichtbare_Kanten_TC_020513_DIN_
  6
Continuous
 62
     7
100
AcDbLine
 10
253.6689710240464
 20
124.6601673570955
 30
0.0
 11
252.6285475110494
 21
124.6601673570955
 31
0.0
  0
LINE
  5
5E6
330
1F
100
AcDbEntity
  8
Sichtbare_Kanten_TC_020513_DIN_
  6
Continuous
 62
     7
100
AcDbLine
 10
222.2093945370423
 20
124.6601673570955
 30
0.0
 11
221.1689710240464
 21
124.6601673570955
 31
0.0
  0
LINE
  5
5E7
330
1F
100
AcDbEntity
  8
Sichtbare_Kanten_TC_020513_DIN_
  6
Continuous
 62
     7
100
AcDbLine
 10
253.6689710240464
 20
124.6601673570955
 30
0.0
 11
259.6689710240474
 21
124.6601673570955
 31
0.0
  0
LINE
  5
5E8
330
1F
100
AcDbEntity
  8
Sichtbare_Kanten_TC_020513_DIN_
  6
Continuous
 62
     7
100
AcDbLine
 10
252.5589710240424
 20
85.05016735709552
 30
0.0
 11
252.5589710240424
 21
69.66016735709562
 31
0.0
  0
LINE
  5
5E9
330
1F
100
AcDbEntity
  8
Sichtbare_Kanten_TC_020513_DIN_
  6
Continuous
 62
     7
100
AcDbLine
 10
222.2789710240424
 20
69.66016735709562
 30
0.0
 11
222.2789710240424
 21
85.05016735709552
 31
0.0
  0
LINE
  5
5EA
330
1F
100
AcDbEntity
  8
Sichtbare_Kanten_TC_020513_DIN_
  6
Continuous
 62
     7
100
AcDbLine
 10
215.3689710240483
 20
128.6601673570955
 30
0.0
 11
215.3689710240483
 21
124.6601673570955
 31
0.0
  0
LINE
  5
5EB
330
1F
100
AcDbEntity
  8
Sichtbare_Kanten_TC_020513_DIN_
  6
Continuous
 62
     7
100
AcDbLine
 10
221.1689710240464
 20
128.6601673570955
 30
0.0
 11
215.3689710240483
 21
128.6601673570955
 31
0.0
  0
LINE
  5
5EC
330
1F
100
AcDbEntity
  8
Sichtbare_Kanten_TC_020513_DIN_
  6
Continuous
 62
     7
100
AcDbLine
 10
221.1689710240464
 20
128.6601673570955
 30
0.0
 11
221.1741658026234
 21
128.6601673570955
 31
0.0
  0
LINE
  5
5ED
330
1F
100
AcDbEntity
  8
Sichtbare_Kanten_TC_020513_DIN_
  6
Continuous
 62
     7
100
AcDbLine
 10
253.6637762454694
 20
128.6601673570955
 30
0.0
 11
253.6689710240464
 21
128.6601673570955
 31
0.0
  0
LINE
  5
5EE
330
1F
100
AcDbEntity
  8
Sichtbare_Kanten_TC_020513_DIN_
  6
Continuous
 62
     7
100
AcDbLine
 10
259.4689710240484
 20
128.6601673570955
 30
0.0
 11
259.4689710240484
 21
124.6601673570955
 31
0.0
  0
LINE
  5
5EF
330
1F
100
AcDbEntity
  8
Sichtbare_Kanten_TC_020513_DIN_
  6
Continuous
 62
     7
100
AcDbLine
 10
259.4689710240484
 20
128.6601673570955
 30
0.0
 11
253.6689710240464
 21
128.6601673570955
 31
0.0
  0
LINE
  5
5F0
330
1F
100
AcDbEntity
  8
Sichtbare_Kanten_TC_020513_DIN_
  6
Continuous
 62
     7
100
AcDbLine
 10
259.7689710240524
 20
119.1601673570955
 30
0.0
 11
259.7689710240524
 21
124.1601673570955
 31
0.0
  0
LINE
  5
5F1
330
1F
100
AcDbEntity
  8
Sichtbare_Kanten_TC_020513_DIN_
  6
Continuous
 62
     7
100
AcDbLine
 10
264.5189710240524
 20
117.6601673570955
 30
0.0
 11
264.5189710240524
 21
125.6601673570955
 31
0.0
  0
LINE
  5
5F2
330
1F
100
AcDbEntity
  8
Sichtbare_Kanten_TC_020513_DIN_
  6
Continuous
 62
     7
100
AcDbLine
 10
265.9189710240534
 20
117.6601673570955
 30
0.0
 11
265.9189710240534
 21
125.6601673570955
 31
0.0
  0
LINE
  5
5F3
330
1F
100
AcDbEntity
  8
Sichtbare_Kanten_TC_020513_DIN_
  6
Continuous
 62
     7
100
AcDbLine
 10
215.0689710240534
 20
119.1601673570955
 30
0.0
 11
215.0689710240534
 21
124.1601673570955
 31
0.0
  0
LINE
  5
5F4
330
1F
100
AcDbEntity
  8
Sichtbare_Kanten_TC_020513_DIN_
  6
Continuous
 62
     7
100
AcDbLine
 10
210.3189710240534
 20
117.6601673570955
 30
0.0
 11
210.3189710240534
 21
125.6601673570955
 31
0.0
  0
LINE
  5
5F5
330
1F
100
AcDbEntity
  8
Sichtbare_Kanten_TC_020513_DIN_
  6
Continuous
 62
     7
100
AcDbLine
 10
208.9189710240534
 20
117.6601673570955
 30
0.0
 11
208.9189710240534
 21
125.6601673570955
 31
0.0
  0
LINE
  5
5F6
330
1F
100
AcDbEntity
  8
Sichtbare_Kanten_TC_020513_DIN_
  6
Continuous
 62
     7
100
AcDbLine
 10
259.6689710240524
 20
123.1601673570955
 30
0.0
 11
259.7689710240524
 21
123.1601673570955
 31
0.0
  0
LINE
  5
5F7
330
1F
100
AcDbEntity
  8
Sichtbare_Kanten_TC_020513_DIN_
  6
Continuous
 62
     7
100
AcDbLine
 10
259.6689710240524
 20
120.1601673570955
 30
0.0
 11
259.7689710240524
 21
120.1601673570955
 31
0.0
  0
LINE
  5
5F8
330
1F
100
AcDbEntity
  8
Sichtbare_Kanten_TC_020513_DIN_
  6
Continuous
 62
     7
100
AcDbLine
 10
263.9189710240534
 20
124.1601673570955
 30
0.0
 11
264.5189710240524
 21
124.1601673570955
 31
0.0
  0
LINE
  5
5F9
330
1F
100
AcDbEntity
  8
Sichtbare_Kanten_TC_020513_DIN_
  6
Continuous
 62
     7
100
AcDbLine
 10
263.9189710240534
 20
119.1601673570955
 30
0.0
 11
264.5189710240524
 21
119.1601673570955
 31
0.0
  0
LINE
  5
5FA
330
1F
100
AcDbEntity
  8
Sichtbare_Kanten_TC_020513_DIN_
  6
Continuous
 62
     7
100
AcDbLine
 10
259.7689710240524
 20
124.1601673570955
 30
0.0
 11
259.8189710240534
 21
124.1601673570955
 31
0.0
  0
LINE
  5
5FB
330
1F
100
AcDbEntity
  8
Sichtbare_Kanten_TC_020513_DIN_
  6
Continuous
 62
     7
100
AcDbLine
 10
261.2189710240534
 20
124.1601673570955
 30
0.0
 11
262.5189710240524
 21
124.1601673570955
 31
0.0
  0
LINE
  5
5FC
330
1F
100
AcDbEntity
  8
Sichtbare_Kanten_TC_020513_DIN_
  6
Continuous
 62
     7
100
AcDbLine
 10
259.7689710240524
 20
119.1601673570955
 30
0.0
 11
259.8189710240534
 21
119.1601673570955
 31
0.0
  0
LINE
  5
5FD
330
1F
100
AcDbEntity
  8
Sichtbare_Kanten_TC_020513_DIN_
  6
Continuous
 62
     7
100
AcDbLine
 10
261.2189710240534
 20
119.1601673570955
 30
0.0
 11
262.5189710240524
 21
119.1601673570955
 31
0.0
  0
LINE
  5
5FE
330
1F
100
AcDbEntity
  8
Sichtbare_Kanten_TC_020513_DIN_
  6
Continuous
 62
     7
100
AcDbLine
 10
215.0689710240534
 20
123.1601673570955
 30
0.0
 11
215.1689710240534
 21
123.1601673570955
 31
0.0
  0
LINE
  5
5FF
330
1F
100
AcDbEntity
  8
Sichtbare_Kanten_TC_020513_DIN_
  6
Continuous
 62
     7
100
AcDbLine
 10
215.0689710240534
 20
120.1601673570955
 30
0.0
 11
215.1689710240534
 21
120.1601673570955
 31
0.0
  0
LINE
  5
600
330
1F
100
AcDbEntity
  8
Sichtbare_Kanten_TC_020513_DIN_
  6
Continuous
 62
     7
100
AcDbLine
 10
210.3189710240534
 20
124.1601673570955
 30
0.0
 11
210.9189710240524
 21
124.1601673570955
 31
0.0
  0
LINE
  5
601
330
1F
100
AcDbEntity
  8
Sichtbare_Kanten_TC_020513_DIN_
  6
Continuous
 62
     7
100
AcDbLine
 10
210.3189710240534
 20
119.1601673570955
 30
0.0
 11
210.9189710240524
 21
119.1601673570955
 31
0.0
  0
LINE
  5
602
330
1F
100
AcDbEntity
  8
Sichtbare_Kanten_TC_020513_DIN_
  6
Continuous
 62
     7
100
AcDbLine
 10
212.3189710240534
 20
124.1601673570955
 30
0.0
 11
213.6189710240533
 21
124.1601673570955
 31
0.0
  0
LINE
  5
603
330
1F
100
AcDbEntity
  8
Sichtbare_Kanten_TC_020513_DIN_
  6
Continuous
 62
     7
100
AcDbLine
 10
215.0189710240524
 20
124.1601673570955
 30
0.0
 11
215.0689710240534
 21
124.1601673570955
 31
0.0
  0
LINE
  5
604
330
1F
100
AcDbEntity
  8
Sichtbare_Kanten_TC_020513_DIN_
  6
Continuous
 62
     7
100
AcDbLine
 10
212.3189710240534
 20
119.1601673570955
 30
0.0
 11
213.6189710240533
 21
119.1601673570955
 31
0.0
  0
LINE
  5
605
330
1F
100
AcDbEntity
  8
Sichtbare_Kanten_TC_020513_DIN_
  6
Continuous
 62
     7
100
AcDbLine
 10
215.0189710240524
 20
119.1601673570955
 30
0.0
 11
215.0689710240534
 21
119.1601673570955
 31
0.0
  0
LINE
  5
606
330
1F
100
AcDbEntity
  8
Sichtbare_Kanten_TC_020513_DIN_
  6
Continuous
 62
     7
100
AcDbLine
 10
223.6356083266364
 20
109.4435300545045
 30
0.0
 11
223.6356083266364
 21
109.3435300545045
 31
0.0
  0
LINE
  5
607
330
1F
100
AcDbEntity
  8
Sichtbare_Kanten_TC_020513_DIN_
  6
Continuous
 62
     7
100
AcDbLine
 10
227.6356083266364
 20
109.3435300545045
 30
0.0
 11
227.6356083266364
 21
109.4435300545045
 31
0.0
  0
LINE
  5
608
330
1F
100
AcDbEntity
  8
Sichtbare_Kanten_TC_020513_DIN_
  6
Continuous
 62
     7
100
AcDbLine
 10
247.2023337214544
 20
109.4435300545045
 30
0.0
 11
247.2023337214544
 21
109.3435300545045
 31
0.0
  0
LINE
  5
609
330
1F
100
AcDbEntity
  8
Sichtbare_Kanten_TC_020513_DIN_
  6
Continuous
 62
     7
100
AcDbLine
 10
251.2023337214554
 20
109.3435300545045
 30
0.0
 11
251.2023337214544
 21
109.4435300545045
 31
0.0
  0
LINE
  5
60A
330
1F
100
AcDbEntity
  8
Sichtbare_Kanten_TC_020513_DIN_
  6
Continuous
 62
     7
100
AcDbLine
 10
212.3189710240504
 20
109.8186589239085
 30
0.0
 11
212.3189710240534
 21
106.9262269324895
 31
0.0
  0
LINE
  5
60B
330
1F
100
AcDbEntity
  8
Sichtbare_Kanten_TC_020513_DIN_
  6
Continuous
 62
     7
100
AcDbLine
 10
212.3189710240534
 20
128.6601673570955
 30
0.0
 11
212.3189710240524
 21
127.9521430706745
 31
0.0
  0
LINE
  5
60C
330
1F
100
AcDbEntity
  8
Sichtbare_Kanten_TC_020513_DIN_
  6
Continuous
 62
     7
100
AcDbLine
 10
212.3189710240524
 20
127.9521430706745
 30
0.0
 11
212.3189710240504
 21
122.8385796070035
 31
0.0
  0
LINE
  5
60D
330
1F
100
AcDbEntity
  8
Sichtbare_Kanten_TC_020513_DIN_
  6
Continuous
 62
     7
100
AcDbLine
 10
212.3189710240494
 20
122.6601673570955
 30
0.0
 11
212.3189710240504
 21
122.8385796070035
 31
0.0
  0
LINE
  5
60E
330
1F
100
AcDbEntity
  8
Sichtbare_Kanten_TC_020513_DIN_
  6
Continuous
 62
     7
100
AcDbLine
 10
212.3189710240494
 20
122.6601673570955
 30
0.0
 11
212.3189710240434
 21
114.6601673570955
 31
0.0
  0
LINE
  5
60F
330
1F
100
AcDbEntity
  8
Sichtbare_Kanten_TC_020513_DIN_
  6
Continuous
 62
     7
100
AcDbLine
 10
212.3189710240434
 20
112.2435300545045
 30
0.0
 11
212.3189710240434
 21
114.6601673570955
 31
0.0
  0
LINE
  5
610
330
1F
100
AcDbEntity
  8
Sichtbare_Kanten_TC_020513_DIN_
  6
Continuous
 62
     7
100
AcDbLine
 10
210.9189710240434
 20
112.2435300545045
 30
0.0
 11
210.9189710240434
 21
114.6601673570955
 31
0.0
  0
LINE
  5
611
330
1F
100
AcDbEntity
  8
Sichtbare_Kanten_TC_020513_DIN_
  6
Continuous
 62
     7
100
AcDbLine
 10
210.9189710240464
 20
122.6601673570955
 30
0.0
 11
210.9189710240434
 21
114.6601673570955
 31
0.0
  0
LINE
  5
612
330
1F
100
AcDbEntity
  8
Sichtbare_Kanten_TC_020513_DIN_
  6
Continuous
 62
     7
100
AcDbLine
 10
210.9189710240464
 20
122.6601673570955
 30
0.0
 11
210.9189710240503
 21
122.8385796070035
 31
0.0
  0
LINE
  5
613
330
1F
100
AcDbEntity
  8
Sichtbare_Kanten_TC_020513_DIN_
  6
Continuous
 62
     7
100
AcDbLine
 10
210.9189710240524
 20
127.9521430706745
 30
0.0
 11
210.9189710240503
 21
122.8385796070035
 31
0.0
  0
LINE
  5
614
330
1F
100
AcDbEntity
  8
Sichtbare_Kanten_TC_020513_DIN_
  6
Continuous
 62
     7
100
AcDbLine
 10
210.9189710240524
 20
128.6601673570955
 30
0.0
 11
210.9189710240524
 21
127.9521430706745
 31
0.0
  0
LINE
  5
615
330
1F
100
AcDbEntity
  8
Sichtbare_Kanten_TC_020513_DIN_
  6
Continuous
 62
     7
100
AcDbLine
 10
210.9189710240434
 20
112.2435300545045
 30
0.0
 11
210.9189710240534
 21
106.9262269324895
 31
0.0
  0
LINE
  5
616
330
1F
100
AcDbEntity
  8
Sichtbare_Kanten_TC_020513_DIN_
  6
Continuous
 62
     7
100
AcDbLine
 10
210.9189710240464
 20
122.6601673570955
 30
0.0
 11
212.3189710240494
 21
122.6601673570955
 31
0.0
  0
LINE
  5
617
330
1F
100
AcDbEntity
  8
Sichtbare_Kanten_TC_020513_DIN_
  6
Continuous
 62
     7
100
AcDbLine
 10
217.6356083266343
 20
109.4435300545045
 30
0.0
 11
213.7189710240434
 21
109.4435300545045
 31
0.0
  0
LINE
  5
618
330
1F
100
AcDbEntity
  8
Sichtbare_Kanten_TC_020513_DIN_
  6
Continuous
 62
     7
100
AcDbLine
 10
217.6356083266343
 20
110.8435300545045
 30
0.0
 11
213.7189710240434
 21
110.8435300545045
 31
0.0
  0
LINE
  5
619
330
1F
100
AcDbEntity
  8
Sichtbare_Kanten_TC_020513_DIN_
  6
Continuous
 62
     7
100
AcDbLine
 10
218.4271531515664
 20
110.8435300545045
 30
0.0
 11
217.6356083266343
 21
110.8435300545045
 31
0.0
  0
LINE
  5
61A
330
1F
100
AcDbEntity
  8
Sichtbare_Kanten_TC_020513_DIN_
  6
Continuous
 62
     7
100
AcDbLine
 10
218.4271531515664
 20
109.4435300545045
 30
0.0
 11
217.6356083266343
 21
109.4435300545045
 31
0.0
  0
LINE
  5
61B
330
1F
100
AcDbEntity
  8
Sichtbare_Kanten_TC_020513_DIN_
  6
Continuous
 62
     7
100
AcDbLine
 10
218.4271531515664
 20
110.8435300545045
 30
0.0
 11
224.7595117510204
 21
110.8435300545045
 31
0.0
  0
LINE
  5
61C
330
1F
100
AcDbEntity
  8
Sichtbare_Kanten_TC_020513_DIN_
  6
Continuous
 62
     7
100
AcDbLine
 10
218.4271531515664
 20
109.4435300545045
 30
0.0
 11
224.7595117510204
 21
109.4435300545045
 31
0.0
  0
LINE
  5
61D
330
1F
100
AcDbEntity
  8
Sichtbare_Kanten_TC_020513_DIN_
  6
Continuous
 62
     7
100
AcDbLine
 10
223.6356083266364
 20
108.5058751394975
 30
0.0
 11
227.1356083266364
 21
108.5058751394975
 31
0.0
  0
LINE
  5
61E
330
1F
100
AcDbEntity
  8
Sichtbare_Kanten_TC_020513_DIN_
  6
Continuous
 62
     7
100
AcDbLine
 10
227.6356083266364
 20
109.0058751394975
 30
0.0
 11
227.6356083266364
 21
109.3435300545045
 31
0.0
  0
LINE
  5
61F
330
1F
100
AcDbEntity
  8
Sichtbare_Kanten_TC_020513_DIN_
  6
Continuous
 62
     7
100
AcDbLine
 10
223.6356083266364
 20
109.3435300545045
 30
0.0
 11
223.6356083266364
 21
108.5058751394975
 31
0.0
  0
LINE
  5
620
330
1F
100
AcDbEntity
  8
Sichtbare_Kanten_TC_020513_DIN_
  6
Continuous
 62
     7
100
AcDbLine
 10
257.2023337214524
 20
109.4435300545045
 30
0.0
 11
261.1189710240433
 21
109.4435300545045
 31
0.0
  0
LINE
  5
621
330
1F
100
AcDbEntity
  8
Sichtbare_Kanten_TC_020513_DIN_
  6
Continuous
 62
     7
100
AcDbLine
 10
256.4107888965204
 20
109.4435300545045
 30
0.0
 11
257.2023337214524
 21
109.4435300545045
 31
0.0
  0
LINE
  5
622
330
1F
100
AcDbEntity
  8
Sichtbare_Kanten_TC_020513_DIN_
  6
Continuous
 62
     7
100
AcDbLine
 10
256.4107888965204
 20
109.4435300545045
 30
0.0
 11
250.0784302970644
 21
109.4435300545045
 31
0.0
  0
LINE
  5
623
330
1F
100
AcDbEntity
  8
Sichtbare_Kanten_TC_020513_DIN_
  6
Continuous
 62
     7
100
AcDbLine
 10
250.0784302970644
 20
109.4435300545045
 30
0.0
 11
224.7595117510204
 21
109.4435300545045
 31
0.0
  0
LINE
  5
624
330
1F
100
AcDbEntity
  8
Sichtbare_Kanten_TC_020513_DIN_
  6
Continuous
 62
     7
100
AcDbLine
 10
251.2023337214544
 20
108.5058751394975
 30
0.0
 11
247.7023337214554
 21
108.5058751394975
 31
0.0
  0
LINE
  5
625
330
1F
100
AcDbEntity
  8
Sichtbare_Kanten_TC_020513_DIN_
  6
Continuous
 62
     7
100
AcDbLine
 10
247.2023337214554
 20
109.0058751394975
 30
0.0
 11
247.2023337214544
 21
109.3435300545045
 31
0.0
  0
LINE
  5
626
330
1F
100
AcDbEntity
  8
Sichtbare_Kanten_TC_020513_DIN_
  6
Continuous
 62
     7
100
AcDbLine
 10
251.2023337214554
 20
109.3435300545045
 30
0.0
 11
251.2023337214544
 21
108.5058751394975
 31
0.0
  0
LINE
  5
627
330
1F
100
AcDbEntity
  8
Sichtbare_Kanten_TC_020513_DIN_
  6
Continuous
 62
     7
100
AcDbLine
 10
250.0784302970644
 20
110.8435300545045
 30
0.0
 11
224.7595117510204
 21
110.8435300545045
 31
0.0
  0
LINE
  5
628
330
1F
100
AcDbEntity
  8
Sichtbare_Kanten_TC_020513_DIN_
  6
Continuous
 62
     7
100
AcDbLine
 10
256.4107888965204
 20
110.8435300545045
 30
0.0
 11
250.0784302970644
 21
110.8435300545045
 31
0.0
  0
LINE
  5
629
330
1F
100
AcDbEntity
  8
Sichtbare_Kanten_TC_020513_DIN_
  6
Continuous
 62
     7
100
AcDbLine
 10
256.4107888965204
 20
110.8435300545045
 30
0.0
 11
257.2023337214524
 21
110.8435300545045
 31
0.0
  0
LINE
  5
62A
330
1F
100
AcDbEntity
  8
Sichtbare_Kanten_TC_020513_DIN_
  6
Continuous
 62
     7
100
AcDbLine
 10
257.2023337214524
 20
110.8435300545045
 30
0.0
 11
261.1189710240433
 21
110.8435300545045
 31
0.0
  0
LINE
  5
62B
330
1F
100
AcDbEntity
  8
Sichtbare_Kanten_TC_020513_DIN_
  6
Continuous
 62
     7
100
AcDbLine
 10
262.5189710240434
 20
112.2435300545045
 30
0.0
 11
262.5189710240434
 21
114.6601673570955
 31
0.0
  0
LINE
  5
62C
330
1F
100
AcDbEntity
  8
Sichtbare_Kanten_TC_020513_DIN_
  6
Continuous
 62
     7
100
AcDbLine
 10
262.5189710240464
 20
122.6601673570955
 30
0.0
 11
262.5189710240434
 21
114.6601673570955
 31
0.0
  0
LINE
  5
62D
330
1F
100
AcDbEntity
  8
Sichtbare_Kanten_TC_020513_DIN_
  6
Continuous
 62
     7
100
AcDbLine
 10
262.5189710240464
 20
122.6601673570955
 30
0.0
 11
262.5189710240504
 21
122.8385796070035
 31
0.0
  0
LINE
  5
62E
330
1F
100
AcDbEntity
  8
Sichtbare_Kanten_TC_020513_DIN_
  6
Continuous
 62
     7
100
AcDbLine
 10
262.5189710240524
 20
127.9521430706745
 30
0.0
 11
262.5189710240504
 21
122.8385796070035
 31
0.0
  0
LINE
  5
62F
330
1F
100
AcDbEntity
  8
Sichtbare_Kanten_TC_020513_DIN_
  6
Continuous
 62
     7
100
AcDbLine
 10
262.5189710240524
 20
128.6601673570955
 30
0.0
 11
262.5189710240524
 21
127.9521430706745
 31
0.0
  0
LINE
  5
630
330
1F
100
AcDbEntity
  8
Sichtbare_Kanten_TC_020513_DIN_
  6
Continuous
 62
     7
100
AcDbLine
 10
262.5189710240504
 20
109.8186589239085
 30
0.0
 11
262.5189710240534
 21
106.9262269324895
 31
0.0
  0
LINE
  5
631
330
1F
100
AcDbEntity
  8
Sichtbare_Kanten_TC_020513_DIN_
  6
Continuous
 62
     7
100
AcDbLine
 10
263.9189710240503
 20
112.2435300545045
 30
0.0
 11
263.9189710240534
 21
106.9262269324895
 31
0.0
  0
LINE
  5
632
330
1F
100
AcDbEntity
  8
Sichtbare_Kanten_TC_020513_DIN_
  6
Continuous
 62
     7
100
AcDbLine
 10
263.9189710240534
 20
128.6601673570955
 30
0.0
 11
263.9189710240524
 21
127.9521430706745
 31
0.0
  0
LINE
  5
633
330
1F
100
AcDbEntity
  8
Sichtbare_Kanten_TC_020513_DIN_
  6
Continuous
 62
     7
100
AcDbLine
 10
263.9189710240524
 20
127.9521430706745
 30
0.0
 11
263.9189710240503
 21
122.8385796070035
 31
0.0
  0
LINE
  5
634
330
1F
100
AcDbEntity
  8
Sichtbare_Kanten_TC_020513_DIN_
  6
Continuous
 62
     7
100
AcDbLine
 10
263.9189710240503
 20
122.6601673570955
 30
0.0
 11
263.9189710240503
 21
122.8385796070035
 31
0.0
  0
LINE
  5
635
330
1F
100
AcDbEntity
  8
Sichtbare_Kanten_TC_020513_DIN_
  6
Continuous
 62
     7
100
AcDbLine
 10
263.9189710240503
 20
122.6601673570955
 30
0.0
 11
263.9189710240434
 21
114.6601673570955
 31
0.0
  0
LINE
  5
636
330
1F
100
AcDbEntity
  8
Sichtbare_Kanten_TC_020513_DIN_
  6
Continuous
 62
     7
100
AcDbLine
 10
263.9189710240503
 20
112.2435300545045
 30
0.0
 11
263.9189710240434
 21
114.6601673570955
 31
0.0
  0
LINE
  5
637
330
1F
100
AcDbEntity
  8
Sichtbare_Kanten_TC_020513_DIN_
  6
Continuous
 62
     7
100
AcDbLine
 10
263.9189710240503
 20
122.6601673570955
 30
0.0
 11
262.5189710240464
 21
122.6601673570955
 31
0.0
  0
LINE
  5
638
330
1F
100
AcDbEntity
  8
Sichtbare_Kanten_TC_020513_DIN_
  6
Continuous
 62
     7
100
AcDbLine
 10
259.8189710240534
 20
111.5225124420885
 30
0.0
 11
259.8189710240534
 21
111.6601673570955
 31
0.0
  0
LINE
  5
639
330
1F
100
AcDbEntity
  8
Sichtbare_Kanten_TC_020513_DIN_
  6
Continuous
 62
     7
100
AcDbLine
 10
259.8189710240504
 20
119.8757656723665
 30
0.0
 11
259.8189710240534
 21
111.6601673570955
 31
0.0
  0
LINE
  5
63A
330
1F
100
AcDbEntity
  8
Sichtbare_Kanten_TC_020513_DIN_
  6
Continuous
 62
     7
100
AcDbLine
 10
259.8189710240504
 20
119.8757656723665
 30
0.0
 11
259.8189710240504
 21
124.7037452284695
 31
0.0
  0
LINE
  5
63B
330
1F
100
AcDbEntity
  8
Sichtbare_Kanten_TC_020513_DIN_
  6
Continuous
 62
     7
100
AcDbLine
 10
259.8189710240504
 20
124.7037452284695
 30
0.0
 11
259.8189710240504
 21
125.0523171201885
 31
0.0
  0
LINE
  5
63C
330
1F
100
AcDbEntity
  8
Sichtbare_Kanten_TC_020513_DIN_
  6
Continuous
 62
     7
100
AcDbLine
 10
259.8189710240504
 20
125.0523171201885
 30
0.0
 11
259.8189710240484
 21
129.0211526920905
 31
0.0
  0
LINE
  5
63D
330
1F
100
AcDbEntity
  8
Sichtbare_Kanten_TC_020513_DIN_
  6
Continuous
 62
     7
100
AcDbLine
 10
259.8189710240454
 20
139.4564089412875
 30
0.0
 11
259.8189710240463
 21
141.5036286258855
 31
0.0
  0
LINE
  5
63E
330
1F
100
AcDbEntity
  8
Sichtbare_Kanten_TC_020513_DIN_
  6
Continuous
 62
     7
100
AcDbLine
 10
259.8189710240513
 20
146.6601673570955
 30
0.0
 11
259.8189710240463
 21
141.5036286258855
 31
0.0
  0
LINE
  5
63F
330
1F
100
AcDbEntity
  8
Sichtbare_Kanten_TC_020513_DIN_
  6
Continuous
 62
     7
100
AcDbLine
 10
261.2189710240464
 20
141.5036286258855
 30
0.0
 11
261.2189710240454
 21
139.4564089412875
 31
0.0
  0
LINE
  5
640
330
1F
100
AcDbEntity
  8
Sichtbare_Kanten_TC_020513_DIN_
  6
Continuous
 62
     7
100
AcDbLine
 10
261.2189710240464
 20
141.5036286258855
 30
0.0
 11
261.2189710240514
 21
146.6601673570955
 31
0.0
  0
LINE
  5
641
330
1F
100
AcDbEntity
  8
Sichtbare_Kanten_TC_020513_DIN_
  6
Continuous
 62
     7
100
AcDbLine
 10
261.2189710240484
 20
129.0211526920905
 30
0.0
 11
261.2189710240504
 21
125.0523171201885
 31
0.0
  0
LINE
  5
642
330
1F
100
AcDbEntity
  8
Sichtbare_Kanten_TC_020513_DIN_
  6
Continuous
 62
     7
100
AcDbLine
 10
261.2189710240504
 20
125.0523171201885
 30
0.0
 11
261.2189710240504
 21
124.7037452284695
 31
0.0
  0
LINE
  5
643
330
1F
100
AcDbEntity
  8
Sichtbare_Kanten_TC_020513_DIN_
  6
Continuous
 62
     7
100
AcDbLine
 10
261.2189710240504
 20
124.7037452284695
 30
0.0
 11
261.2189710240504
 21
119.8757656723665
 31
0.0
  0
LINE
  5
644
330
1F
100
AcDbEntity
  8
Sichtbare_Kanten_TC_020513_DIN_
  6
Continuous
 62
     7
100
AcDbLine
 10
261.2189710240534
 20
111.6601673570955
 30
0.0
 11
261.2189710240504
 21
119.8757656723665
 31
0.0
  0
LINE
  5
645
330
1F
100
AcDbEntity
  8
Sichtbare_Kanten_TC_020513_DIN_
  6
Continuous
 62
     7
100
AcDbLine
 10
261.2189710240534
 20
111.6601673570955
 30
0.0
 11
261.2189710240534
 21
111.5225124420885
 31
0.0
  0
LINE
  5
646
330
1F
100
AcDbEntity
  8
Sichtbare_Kanten_TC_020513_DIN_
  6
Continuous
 62
     7
100
AcDbLine
 10
261.2189710240534
 20
111.6601673570955
 30
0.0
 11
259.8189710240534
 21
111.6601673570955
 31
0.0
  0
LINE
  5
647
330
1F
100
AcDbEntity
  8
Sichtbare_Kanten_TC_020513_DIN_
  6
Continuous
 62
     7
100
AcDbLine
 10
261.2189710240514
 20
146.6601673570955
 30
0.0
 11
259.8189710240513
 21
146.6601673570955
 31
0.0
  0
LINE
  5
648
330
1F
100
AcDbEntity
  8
Sichtbare_Kanten_TC_020513_DIN_
  6
Continuous
 62
     7
100
AcDbLine
 10
256.8415191427894
 20
137.0211526920905
 30
0.0
 11
253.9523337214534
 21
137.0211526920905
 31
0.0
  0
LINE
  5
649
330
1F
100
AcDbEntity
  8
Sichtbare_Kanten_TC_020513_DIN_
  6
Continuous
 62
     7
100
AcDbLine
 10
253.3424537996233
 20
127.4609756635935
 30
0.0
 11
253.7108522648813
 21
128.8358574533665
 31
0.0
  0
LINE
  5
64A
330
1F
100
AcDbEntity
  8
Sichtbare_Kanten_TC_020513_DIN_
  6
Continuous
 62
     7
100
AcDbLine
 10
253.9523337214534
 20
129.0211526920905
 30
0.0
 11
258.4189710240444
 21
129.0211526920905
 31
0.0
  0
LINE
  5
64B
330
1F
100
AcDbEntity
  8
Sichtbare_Kanten_TC_020513_DIN_
  6
Continuous
 62
     7
100
AcDbLine
 10
258.4189710240444
 20
138.3453628118605
 30
0.0
 11
257.6075635859084
 21
137.3783650824045
 31
0.0
  0
LINE
  5
64C
330
1F
100
AcDbEntity
  8
Sichtbare_Kanten_TC_020513_DIN_
  6
Continuous
 62
     7
100
AcDbLine
 10
250.5190489917924
 20
140.2377899946815
 30
0.0
 11
248.5871973392144
 21
140.2377899946815
 31
0.0
  0
LINE
  5
64D
330
1F
100
AcDbEntity
  8
Sichtbare_Kanten_TC_020513_DIN_
  6
Continuous
 62
     7
100
AcDbLine
 10
248.5871973392133
 20
138.8377899946815
 30
0.0
 11
250.5190489917924
 21
138.8377899946815
 31
0.0
  0
LINE
  5
64E
330
1F
100
AcDbEntity
  8
Sichtbare_Kanten_TC_020513_DIN_
  6
Continuous
 62
     7
100
AcDbLine
 10
250.5190489917924
 20
140.2377899946815
 30
0.0
 11
251.8411840985264
 21
140.2377899946815
 31
0.0
  0
LINE
  5
64F
330
1F
100
AcDbEntity
  8
Sichtbare_Kanten_TC_020513_DIN_
  6
Continuous
 62
     7
100
AcDbLine
 10
251.8411840985264
 20
138.8377899946815
 30
0.0
 11
250.5190489917924
 21
138.8377899946815
 31
0.0
  0
LINE
  5
650
330
1F
100
AcDbEntity
  8
Sichtbare_Kanten_TC_020513_DIN_
  6
Continuous
 62
     7
100
AcDbLine
 10
261.3189710240534
 20
111.4225124420885
 30
0.0
 11
262.2529595954694
 21
111.4225124420885
 31
0.0
  0
LINE
  5
651
330
1F
100
AcDbEntity
  8
Sichtbare_Kanten_TC_020513_DIN_
  6
Continuous
 62
     7
100
AcDbLine
 10
263.9189710240534
 20
110.0225124420885
 30
0.0
 11
264.2566259390614
 21
110.0225124420885
 31
0.0
  0
LINE
  5
652
330
1F
100
AcDbEntity
  8
Sichtbare_Kanten_TC_020513_DIN_
  6
Continuous
 62
     7
100
AcDbLine
 10
264.2566259390614
 20
111.4225124420885
 30
0.0
 11
264.2566259390614
 21
110.0225124420885
 31
0.0
  0
LINE
  5
653
330
1F
100
AcDbEntity
  8
Sichtbare_Kanten_TC_020513_DIN_
  6
Continuous
 62
     7
100
AcDbLine
 10
264.2566259390614
 20
111.4225124420885
 30
0.0
 11
263.9189710240534
 21
111.4225124420885
 31
0.0
  0
LINE
  5
654
330
1F
100
AcDbEntity
  8
Sichtbare_Kanten_TC_020513_DIN_
  6
Continuous
 62
     7
100
AcDbLine
 10
251.4782077267674
 20
121.3609389269075
 30
0.0
 11
253.1067533795704
 21
126.8693100971565
 31
0.0
  0
LINE
  5
655
330
1F
100
AcDbEntity
  8
Sichtbare_Kanten_TC_020513_DIN_
  6
Continuous
 62
     7
100
AcDbLine
 10
253.1067533795704
 20
126.2776445307195
 30
0.0
 11
251.4782077267674
 21
120.7692733604705
 31
0.0
  0
LINE
  5
656
330
1F
100
AcDbEntity
  8
Sichtbare_Kanten_TC_020513_DIN_
  6
Continuous
 62
     7
100
AcDbLine
 10
248.5871973392144
 20
140.2377899946815
 30
0.0
 11
226.2507447088704
 21
140.2377899946815
 31
0.0
  0
LINE
  5
657
330
1F
100
AcDbEntity
  8
Sichtbare_Kanten_TC_020513_DIN_
  6
Continuous
 62
     7
100
AcDbLine
 10
226.2507447088704
 20
138.8377899946815
 30
0.0
 11
248.5871973392133
 21
138.8377899946815
 31
0.0
  0
LINE
  5
658
330
1F
100
AcDbEntity
  8
Sichtbare_Kanten_TC_020513_DIN_
  6
Continuous
 62
     7
100
AcDbLine
 10
224.3188930562923
 20
140.2377899946815
 30
0.0
 11
222.9967579495624
 21
140.2377899946815
 31
0.0
  0
LINE
  5
659
330
1F
100
AcDbEntity
  8
Sichtbare_Kanten_TC_020513_DIN_
  6
Continuous
 62
     7
100
AcDbLine
 10
224.3188930562923
 20
140.2377899946815
 30
0.0
 11
226.2507447088704
 21
140.2377899946815
 31
0.0
  0
LINE
  5
65A
330
1F
100
AcDbEntity
  8
Sichtbare_Kanten_TC_020513_DIN_
  6
Continuous
 62
     7
100
AcDbLine
 10
249.5463560741894
 20
119.4257972184165
 30
0.0
 11
225.2915859738984
 21
119.4257972184165
 31
0.0
  0
LINE
  5
65B
330
1F
100
AcDbEntity
  8
Sichtbare_Kanten_TC_020513_DIN_
  6
Continuous
 62
     7
100
AcDbLine
 10
221.7311886685193
 20
126.2776445307195
 30
0.0
 11
223.3597343213203
 21
120.7692733604705
 31
0.0
  0
LINE
  5
65C
330
1F
100
AcDbEntity
  8
Sichtbare_Kanten_TC_020513_DIN_
  6
Continuous
 62
     7
100
AcDbLine
 10
221.4954882484654
 20
127.4609756635935
 30
0.0
 11
221.1270897832074
 21
128.8358574533665
 31
0.0
  0
LINE
  5
65D
330
1F
100
AcDbEntity
  8
Sichtbare_Kanten_TC_020513_DIN_
  6
Continuous
 62
     7
100
AcDbLine
 10
217.9964229052994
 20
137.0211526920905
 30
0.0
 11
220.8856083266354
 21
137.0211526920905
 31
0.0
  0
LINE
  5
65E
330
1F
100
AcDbEntity
  8
Sichtbare_Kanten_TC_020513_DIN_
  6
Continuous
 62
     7
100
AcDbLine
 10
216.4189710240444
 20
138.3453628118605
 30
0.0
 11
217.2303784621803
 21
137.3783650824045
 31
0.0
  0
LINE
  5
65F
330
1F
100
AcDbEntity
  8
Sichtbare_Kanten_TC_020513_DIN_
  6
Continuous
 62
     7
100
AcDbLine
 10
220.8856083266354
 20
129.0211526920905
 30
0.0
 11
216.4189710240444
 21
129.0211526920905
 31
0.0
  0
LINE
  5
660
330
1F
100
AcDbEntity
  8
Sichtbare_Kanten_TC_020513_DIN_
  6
Continuous
 62
     7
100
AcDbLine
 10
215.0189710240514
 20
146.6601673570955
 30
0.0
 11
215.0189710240464
 21
141.5036286258855
 31
0.0
  0
LINE
  5
661
330
1F
100
AcDbEntity
  8
Sichtbare_Kanten_TC_020513_DIN_
  6
Continuous
 62
     7
100
AcDbLine
 10
215.0189710240454
 20
139.4564089412875
 30
0.0
 11
215.0189710240464
 21
141.5036286258855
 31
0.0
  0
LINE
  5
662
330
1F
100
AcDbEntity
  8
Sichtbare_Kanten_TC_020513_DIN_
  6
Continuous
 62
     7
100
AcDbLine
 10
215.0189710240504
 20
125.0523171201885
 30
0.0
 11
215.0189710240484
 21
129.0211526920905
 31
0.0
  0
LINE
  5
663
330
1F
100
AcDbEntity
  8
Sichtbare_Kanten_TC_020513_DIN_
  6
Continuous
 62
     7
100
AcDbLine
 10
215.0189710240504
 20
124.7037452284695
 30
0.0
 11
215.0189710240504
 21
125.0523171201885
 31
0.0
  0
LINE
  5
664
330
1F
100
AcDbEntity
  8
Sichtbare_Kanten_TC_020513_DIN_
  6
Continuous
 62
     7
100
AcDbLine
 10
215.0189710240504
 20
119.8757656723665
 30
0.0
 11
215.0189710240504
 21
124.7037452284695
 31
0.0
  0
LINE
  5
665
330
1F
100
AcDbEntity
  8
Sichtbare_Kanten_TC_020513_DIN_
  6
Continuous
 62
     7
100
AcDbLine
 10
215.0189710240504
 20
119.8757656723665
 30
0.0
 11
215.0189710240524
 21
111.6601673570955
 31
0.0
  0
LINE
  5
666
330
1F
100
AcDbEntity
  8
Sichtbare_Kanten_TC_020513_DIN_
  6
Continuous
 62
     7
100
AcDbLine
 10
215.0189710240534
 20
111.5225124420885
 30
0.0
 11
215.0189710240524
 21
111.6601673570955
 31
0.0
  0
LINE
  5
667
330
1F
100
AcDbEntity
  8
Sichtbare_Kanten_TC_020513_DIN_
  6
Continuous
 62
     7
100
AcDbLine
 10
213.6189710240533
 20
111.6601673570955
 30
0.0
 11
213.6189710240533
 21
111.5225124420885
 31
0.0
  0
LINE
  5
668
330
1F
100
AcDbEntity
  8
Sichtbare_Kanten_TC_020513_DIN_
  6
Continuous
 62
     7
100
AcDbLine
 10
213.6189710240533
 20
111.6601673570955
 30
0.0
 11
213.6189710240504
 21
119.8757656723665
 31
0.0
  0
LINE
  5
669
330
1F
100
AcDbEntity
  8
Sichtbare_Kanten_TC_020513_DIN_
  6
Continuous
 62
     7
100
AcDbLine
 10
213.6189710240504
 20
124.7037452284695
 30
0.0
 11
213.6189710240504
 21
119.8757656723665
 31
0.0
  0
LINE
  5
66A
330
1F
100
AcDbEntity
  8
Sichtbare_Kanten_TC_020513_DIN_
  6
Continuous
 62
     7
100
AcDbLine
 10
213.6189710240504
 20
125.0523171201885
 30
0.0
 11
213.6189710240504
 21
124.7037452284695
 31
0.0
  0
LINE
  5
66B
330
1F
100
AcDbEntity
  8
Sichtbare_Kanten_TC_020513_DIN_
  6
Continuous
 62
     7
100
AcDbLine
 10
213.6189710240483
 20
129.0211526920905
 30
0.0
 11
213.6189710240504
 21
125.0523171201885
 31
0.0
  0
LINE
  5
66C
330
1F
100
AcDbEntity
  8
Sichtbare_Kanten_TC_020513_DIN_
  6
Continuous
 62
     7
100
AcDbLine
 10
213.6189710240464
 20
141.5036286258855
 30
0.0
 11
213.6189710240454
 21
139.4564089412875
 31
0.0
  0
LINE
  5
66D
330
1F
100
AcDbEntity
  8
Sichtbare_Kanten_TC_020513_DIN_
  6
Continuous
 62
     7
100
AcDbLine
 10
213.6189710240464
 20
141.5036286258855
 30
0.0
 11
213.6189710240514
 21
146.6601673570955
 31
0.0
  0
LINE
  5
66E
330
1F
100
AcDbEntity
  8
Sichtbare_Kanten_TC_020513_DIN_
  6
Continuous
 62
     7
100
AcDbLine
 10
226.2507447088704
 20
138.8377899946815
 30
0.0
 11
224.3188930562923
 21
138.8377899946815
 31
0.0
  0
LINE
  5
66F
330
1F
100
AcDbEntity
  8
Sichtbare_Kanten_TC_020513_DIN_
  6
Continuous
 62
     7
100
AcDbLine
 10
222.9967579495624
 20
138.8377899946815
 30
0.0
 11
224.3188930562923
 21
138.8377899946815
 31
0.0
  0
LINE
  5
670
330
1F
100
AcDbEntity
  8
Sichtbare_Kanten_TC_020513_DIN_
  6
Continuous
 62
     7
100
AcDbLine
 10
213.6189710240533
 20
111.6601673570955
 30
0.0
 11
215.0189710240524
 21
111.6601673570955
 31
0.0
  0
LINE
  5
671
330
1F
100
AcDbEntity
  8
Sichtbare_Kanten_TC_020513_DIN_
  6
Continuous
 62
     7
100
AcDbLine
 10
213.6189710240514
 20
146.6601673570955
 30
0.0
 11
215.0189710240514
 21
146.6601673570955
 31
0.0
  0
LINE
  5
672
330
1F
100
AcDbEntity
  8
Sichtbare_Kanten_TC_020513_DIN_
  6
Continuous
 62
     7
100
AcDbLine
 10
210.9189710240534
 20
110.0225124420885
 30
0.0
 11
210.5813161090463
 21
110.0225124420885
 31
0.0
  0
LINE
  5
673
330
1F
100
AcDbEntity
  8
Sichtbare_Kanten_TC_020513_DIN_
  6
Continuous
 62
     7
100
AcDbLine
 10
210.5813161090463
 20
111.4225124420885
 30
0.0
 11
210.9189710240534
 21
111.4225124420885
 31
0.0
  0
LINE
  5
674
330
1F
100
AcDbEntity
  8
Sichtbare_Kanten_TC_020513_DIN_
  6
Continuous
 62
     7
100
AcDbLine
 10
210.5813161090463
 20
111.4225124420885
 30
0.0
 11
210.5813161090463
 21
110.0225124420885
 31
0.0
  0
LINE
  5
675
330
1F
100
AcDbEntity
  8
Sichtbare_Kanten_TC_020513_DIN_
  6
Continuous
 62
     7
100
AcDbLine
 10
213.5189710240534
 20
111.4225124420885
 30
0.0
 11
212.5849824526374
 21
111.4225124420885
 31
0.0
  0
LINE
  5
676
330
1F
100
AcDbEntity
  8
Sichtbare_Kanten_TC_020513_DIN_
  6
Continuous
 62
     7
100
AcDbLine
 10
223.3597343213203
 20
121.3609389269075
 30
0.0
 11
221.7311886685193
 21
126.8693100971565
 31
0.0
  0
LINE
  5
677
330
1F
100
AcDbEntity
  8
Sichtbare_Kanten_TC_020513_DIN_
  6
Continuous
 62
     7
100
AcDbLine
 10
225.2915859738984
 20
120.0174627848535
 30
0.0
 11
249.5463560741884
 21
120.0174627848535
 31
0.0
  0
LINE
  5
678
330
1F
100
AcDbEntity
  8
Sichtbare_Kanten_TC_020513_DIN_
  6
Continuous
 62
     7
100
AcDbLine
 10
210.9189710240534
 20
106.9262269324895
 30
0.0
 11
212.3189710240534
 21
106.9262269324895
 31
0.0
  0
LINE
  5
679
330
1F
100
AcDbEntity
  8
Sichtbare_Kanten_TC_020513_DIN_
  6
Continuous
 62
     7
100
AcDbLine
 10
210.9189710240524
 20
128.6601673570955
 30
0.0
 11
212.3189710240534
 21
128.6601673570955
 31
0.0
  0
LINE
  5
67A
330
1F
100
AcDbEntity
  8
Sichtbare_Kanten_TC_020513_DIN_
  6
Continuous
 62
     7
100
AcDbLine
 10
262.5189710240534
 20
106.9262269324895
 30
0.0
 11
263.9189710240534
 21
106.9262269324895
 31
0.0
  0
LINE
  5
67B
330
1F
100
AcDbEntity
  8
Sichtbare_Kanten_TC_020513_DIN_
  6
Continuous
 62
     7
100
AcDbLine
 10
262.5189710240524
 20
128.6601673570955
 30
0.0
 11
263.9189710240534
 21
128.6601673570955
 31
0.0
  0
LINE
  5
67C
330
1F
100
AcDbEntity
  8
Sichtbare_Kanten_TC_020513_DIN_
  6
Continuous
 62
     7
100
AcDbLine
 10
253.1067533795704
 20
126.6089756196025
 30
0.0
 11
253.1067533795704
 21
126.8693100971565
 31
0.0
  0
LINE
  5
67D
330
1F
100
AcDbEntity
  8
Sichtbare_Kanten_TC_020513_DIN_
  6
Continuous
 62
     7
100
AcDbLine
 10
253.1067533795704
 20
126.2776445307195
 30
0.0
 11
253.1067533795704
 21
126.6089756196025
 31
0.0
  0
LINE
  5
67E
330
1F
100
AcDbEntity
  8
Sichtbare_Kanten_TC_020513_DIN_
  6
Continuous
 62
     7
100
AcDbLine
 10
259.1055702786534
 20
139.0211526361785
 30
0.0
 11
259.7921681027494
 21
139.0211526361785
 31
0.0
  0
LINE
  5
67F
330
1F
100
AcDbEntity
  8
Sichtbare_Kanten_TC_020513_DIN_
  6
Continuous
 62
     7
100
AcDbLine
 10
260.4349729368213
 20
139.4564089412875
 30
0.0
 11
261.2189710240454
 21
139.4564089412875
 31
0.0
  0
LINE
  5
680
330
1F
100
AcDbEntity
  8
Sichtbare_Kanten_TC_020513_DIN_
  6
Continuous
 62
     7
100
AcDbLine
 10
259.8189710240454
 20
139.4564089412875
 30
0.0
 11
260.4349729368213
 21
139.4564089412875
 31
0.0
  0
LINE
  5
681
330
1F
100
AcDbEntity
  8
Sichtbare_Kanten_TC_020513_DIN_
  6
Continuous
 62
     7
100
AcDbLine
 10
259.7921691809644
 20
139.0211526920905
 30
0.0
 11
260.7880315523884
 21
139.0211526920905
 31
0.0
  0
LINE
  5
682
330
1F
100
AcDbEntity
  8
Sichtbare_Kanten_TC_020513_DIN_
  6
Continuous
 62
     7
100
AcDbLine
 10
261.2189710240484
 20
129.0211526920905
 30
0.0
 11
258.4189710240444
 21
129.0211526920905
 31
0.0
  0
LINE
  5
683
330
1F
100
AcDbEntity
  8
Sichtbare_Kanten_TC_020513_DIN_
  6
Continuous
 62
     7
100
AcDbLine
 10
261.2189710240454
 20
139.4564089412875
 30
0.0
 11
261.2189710240484
 21
129.0211526920905
 31
0.0
  0
LINE
  5
684
330
1F
100
AcDbEntity
  8
Sichtbare_Kanten_TC_020513_DIN_
  6
Continuous
 62
     7
100
AcDbLine
 10
251.8411840985264
 20
139.4537911249625
 30
0.0
 11
251.8411840985264
 21
140.2377899946815
 31
0.0
  0
LINE
  5
685
330
1F
100
AcDbEntity
  8
Sichtbare_Kanten_TC_020513_DIN_
  6
Continuous
 62
     7
100
AcDbLine
 10
251.8411840985264
 20
138.8377899946815
 30
0.0
 11
251.8411840985264
 21
139.4537911249625
 31
0.0
  0
LINE
  5
686
330
1F
100
AcDbEntity
  8
Sichtbare_Kanten_TC_020513_DIN_
  6
Continuous
 62
     7
100
AcDbLine
 10
222.9967579495624
 20
139.4537911249645
 30
0.0
 11
222.9967579495624
 21
138.8377899946815
 31
0.0
  0
LINE
  5
687
330
1F
100
AcDbEntity
  8
Sichtbare_Kanten_TC_020513_DIN_
  6
Continuous
 62
     7
100
AcDbLine
 10
222.9967579495624
 20
140.2377899946815
 30
0.0
 11
222.9967579495624
 21
139.4537911249645
 31
0.0
  0
LINE
  5
688
330
1F
100
AcDbEntity
  8
Sichtbare_Kanten_TC_020513_DIN_
  6
Continuous
 62
     7
100
AcDbLine
 10
221.7311886685193
 20
126.6089756196035
 30
0.0
 11
221.7311886685193
 21
126.2776445307195
 31
0.0
  0
LINE
  5
689
330
1F
100
AcDbEntity
  8
Sichtbare_Kanten_TC_020513_DIN_
  6
Continuous
 62
     7
100
AcDbLine
 10
221.7311886685193
 20
126.8693100971565
 30
0.0
 11
221.7311886685193
 21
126.6089756196035
 31
0.0
  0
LINE
  5
68A
330
1F
100
AcDbEntity
  8
Sichtbare_Kanten_TC_020513_DIN_
  6
Continuous
 62
     7
100
AcDbLine
 10
213.6189710240483
 20
129.0211526920905
 30
0.0
 11
213.6189710240454
 21
139.4564089412875
 31
0.0
  0
LINE
  5
68B
330
1F
100
AcDbEntity
  8
Sichtbare_Kanten_TC_020513_DIN_
  6
Continuous
 62
     7
100
AcDbLine
 10
214.4029691112693
 20
139.4564089412875
 30
0.0
 11
215.0189710240454
 21
139.4564089412875
 31
0.0
  0
LINE
  5
68C
330
1F
100
AcDbEntity
  8
Sichtbare_Kanten_TC_020513_DIN_
  6
Continuous
 62
     7
100
AcDbLine
 10
213.6189710240454
 20
139.4564089412875
 30
0.0
 11
214.4029691112693
 21
139.4564089412875
 31
0.0
  0
LINE
  5
68D
330
1F
100
AcDbEntity
  8
Sichtbare_Kanten_TC_020513_DIN_
  6
Continuous
 62
     7
100
AcDbLine
 10
215.7323717694364
 20
139.0211526361785
 30
0.0
 11
215.0457739453394
 21
139.0211526361785
 31
0.0
  0
LINE
  5
68E
330
1F
100
AcDbEntity
  8
Sichtbare_Kanten_TC_020513_DIN_
  6
Continuous
 62
     7
100
AcDbLine
 10
214.0499104957013
 20
139.0211526920905
 30
0.0
 11
215.0457728671254
 21
139.0211526920905
 31
0.0
  0
LINE
  5
68F
330
1F
100
AcDbEntity
  8
Sichtbare_Kanten_TC_020513_DIN_
  6
Continuous
 62
     7
100
AcDbLine
 10
216.4189710240444
 20
129.0211526920905
 30
0.0
 11
213.6189710240483
 21
129.0211526920905
 31
0.0
  0
LINE
  5
690
330
1F
100
AcDbEntity
  8
Mittelpunktmarkierung_TC_020513_DIN_
  6
CHAIN
 62
     7
100
AcDbLine
 10
67.3374055146034
 20
121.6601673570955
 30
0.0
 11
52.93740551460343
 21
121.6601673570955
 31
0.0
  0
LINE
  5
691
330
1F
100
AcDbEntity
  8
Mittelpunktmarkierung_TC_020513_DIN_
  6
CHAIN
 62
     7
100
AcDbLine
 10
60.13740551460336
 20
128.8601673570955
 30
0.0
 11
60.13740551460336
 21
114.4601673570955
 31
0.0
  0
LINE
  5
692
330
1F
100
AcDbEntity
  8
Mittelpunktmarkierung_TC_020513_DIN_
  6
CHAIN
 62
     7
100
AcDbLine
 10
67.38740551460336
 20
110.6601673570955
 30
0.0
 11
58.88740551460336
 21
110.6601673570955
 31
0.0
  0
LINE
  5
693
330
1F
100
AcDbEntity
  8
Mittelpunktmarkierung_TC_020513_DIN_
  6
CHAIN
 62
     7
100
AcDbLine
 10
63.13740551460337
 20
114.9101673570955
 30
0.0
 11
63.13740551460337
 21
106.4101673570955
 31
0.0
  0
LINE
  5
694
330
1F
100
AcDbEntity
  8
Mittelpunktmarkierung_TC_020513_DIN_
  6
CHAIN
 62
     7
100
AcDbLine
 10
136.3874055146034
 20
110.6601673570955
 30
0.0
 11
127.8874055146034
 21
110.6601673570955
 31
0.0
  0
LINE
  5
695
330
1F
100
AcDbEntity
  8
Mittelpunktmarkierung_TC_020513_DIN_
  6
CHAIN
 62
     7
100
AcDbLine
 10
132.1374055146034
 20
114.9101673570955
 30
0.0
 11
132.1374055146034
 21
106.4101673570955
 31
0.0
  0
LINE
  5
696
330
1F
100
AcDbEntity
  8
Mittelpunktmarkierung_TC_020513_DIN_
  6
CHAIN
 62
     7
100
AcDbLine
 10
142.3374055146034
 20
121.6601673570955
 30
0.0
 11
127.9374055146034
 21
121.6601673570955
 31
0.0
  0
LINE
  5
697
330
1F
100
AcDbEntity
  8
Mittelpunktmarkierung_TC_020513_DIN_
  6
CHAIN
 62
     7
100
AcDbLine
 10
135.1374055146034
 20
128.8601673570955
 30
0.0
 11
135.1374055146034
 21
114.4601673570955
 31
0.0
  0
LINE
  5
698
330
1F
100
AcDbEntity
  8
Mittelpunktmarkierung_TC_020513_DIN_
  6
CHAIN
 62
     7
100
AcDbLine
 10
254.4709710240814
 20
85.05016735709552
 30
0.0
 11
220.3669710240814
 21
85.05016735709552
 31
0.0
  0
LINE
  5
699
330
1F
100
AcDbEntity
  8
Mittelpunktmarkierung_TC_020513_DIN_
  6
CHAIN
 62
     7
100
AcDbLine
 10
237.4189710240814
 20
102.1021673570955
 30
0.0
 11
237.4189710240814
 21
67.99816735709562
 31
0.0
  0
LINE
  5
69A
330
1F
100
AcDbEntity
  8
Mittellinie_TC_020513_DIN_
  6
CHAIN
 62
     7
100
AcDbLine
 10
214.9189710240444
 20
63.16016735709562
 30
0.0
 11
214.9189710240444
 21
72.16016735709562
 31
0.0
  0
LINE
  5
69B
330
1F
100
AcDbEntity
  8
Mittellinie_TC_020513_DIN_
  6
CHAIN
 62
     7
100
AcDbLine
 10
259.9189710240444
 20
63.16016735709562
 30
0.0
 11
259.9189710240444
 21
72.16016735709562
 31
0.0
  0
LINE
  5
69C
330
1F
100
AcDbEntity
  8
Mittellinie_TC_020513_DIN_
  6
CHAIN
 62
     7
100
AcDbLine
 10
207.8189710240534
 20
121.6601673570955
 30
0.0
 11
213.4189710240534
 21
121.6601673570955
 31
0.0
  0
LINE
  5
69D
330
1F
100
AcDbEntity
  8
Mittellinie_TC_020513_DIN_
  6
CHAIN
 62
     7
100
AcDbLine
 10
209.8189710240534
 20
121.6601673570955
 30
0.0
 11
217.5689710240534
 21
121.6601673570955
 31
0.0
  0
LINE
  5
69E
330
1F
100
AcDbEntity
  8
Mittellinie_TC_020513_DIN_
  6
CHAIN
 62
     7
100
AcDbLine
 10
257.2689710240524
 20
121.6601673570955
 30
0.0
 11
265.0189710240524
 21
121.6601673570955
 31
0.0
  0
LINE
  5
69F
330
1F
100
AcDbEntity
  8
Mittellinie_TC_020513_DIN_
  6
CHAIN
 62
     7
100
AcDbLine
 10
261.4189710240534
 20
121.6601673570955
 30
0.0
 11
267.0189710240524
 21
121.6601673570955
 31
0.0
  0
LINE
  5
6A0
330
1F
100
AcDbEntity
  8
Mittellinie_TC_020513_DIN_
  6
CHAIN
 62
     7
100
AcDbLine
 10
154.1374055146034
 20
85.05016735709552
 30
0.0
 11
172.1374055146034
 21
85.05016735709552
 31
0.0
  0
LINE
  5
6A1
330
1F
100
AcDbEntity
  8
Mittellinie_TC_020513_DIN_
  6
CHAIN
 62
     7
100
AcDbLine
 10
163.6374055146034
 20
63.16016735709562
 30
0.0
 11
163.6374055146034
 21
72.16016735709562
 31
0.0
  0
LINE
  5
6A2
330
1F
100
AcDbEntity
  8
Mittellinie_TC_020513_DIN_
  6
CHAIN
 62
     7
100
AcDbLine
 10
31.63740551460336
 20
63.16016735709562
 30
0.0
 11
31.63740551460336
 21
72.16016735709562
 31
0.0
  0
LINE
  5
6A3
330
1F
100
AcDbEntity
  8
Mittellinie_TC_020513_DIN_
  6
CHAIN
 62
     7
100
AcDbLine
 10
23.13740551460336
 20
85.05016735709552
 30
0.0
 11
41.13740551460336
 21
85.05016735709552
 31
0.0
  0
LINE
  5
6A4
330
1F
100
AcDbEntity
  8
Mittellinie_TC_020513_DIN_
  6
CHAIN
 62
     7
100
AcDbLine
 10
97.63740551460336
 20
61.55397754310822
 30
0.0
 11
97.63740551460336
 21
131.3007162810945
 31
0.0
  0
LINE
  5
6A5
330
1F
100
AcDbEntity
  8
1
  6
Continuous
 62
     2
100
AcDbLine
 10
169.6374055146034
 20
99.60216735709552
 30
0.0
 11
169.7374055146034
 21
99.60216735709552
 31
0.0
  0
LINE
  5
6A6
330
1F
100
AcDbEntity
  8
Sichtbare_Kanten_TC_020513_DIN_
  6
Continuous
 62
     7
100
AcDbLine
 10
169.6374055146034
 20
99.60216735709552
 30
0.0
 11
169.6374055146034
 21
100.1901673570955
 31
0.0
  0
LINE
  5
6A7
330
1F
100
AcDbEntity
  8
1
  6
Continuous
 62
     2
100
AcDbLine
 10
169.6374055146034
 20
70.49816735709562
 30
0.0
 11
169.7374055146034
 21
70.49816735709562
 31
0.0
  0
LINE
  5
6A8
330
1F
100
AcDbEntity
  8
Sichtbare_Kanten_TC_020513_DIN_
  6
Continuous
 62
     7
100
AcDbLine
 10
169.6374055146034
 20
70.49816735709562
 30
0.0
 11
169.6374055146034
 21
69.66016735709562
 31
0.0
  0
ARC
  5
6A9
330
1F
100
AcDbEntity
  8
Sichtbare_Kanten_TC_020513_DIN_
  6
Continuous
 62
     7
100
AcDbCircle
 10
99.63740551460336
 20
92.10383396823153
 30
0.0
 40
0.25
100
AcDbArc
 50
180.0
 51
299.9706156499843
  0
ARC
  5
6AA
330
1F
100
AcDbEntity
  8
Sichtbare_Kanten_TC_020513_DIN_
  6
Continuous
 62
     7
100
AcDbCircle
 10
100.6374055146034
 20
92.68050063489852
 30
0.0
 40
0.2500000000000086
100
AcDbArc
 50
299.9706156498535
 51
119.9706156500538
  0
ARC
  5
6AB
330
1F
100
AcDbEntity
  8
Sichtbare_Kanten_TC_020513_DIN_
  6
Continuous
 62
     7
100
AcDbCircle
 10
100.6374055146034
 20
93.66016735709552
 30
0.0
 40
0.25
100
AcDbArc
 50
270.0
 51
90.0
  0
ARC
  5
6AC
330
1F
100
AcDbEntity
  8
Sichtbare_Kanten_TC_020513_DIN_
  6
Continuous
 62
     7
100
AcDbCircle
 10
100.6374055146034
 20
94.63983407929352
 30
0.0
 40
0.2499999999996386
100
AcDbArc
 50
240.0293843498307
 51
60.02938435014648
  0
ARC
  5
6AD
330
1F
100
AcDbEntity
  8
Sichtbare_Kanten_TC_020513_DIN_
  6
Continuous
 62
     7
100
AcDbCircle
 10
99.63740551460336
 20
95.21650074596052
 30
0.0
 40
0.2500000000000512
100
AcDbArc
 50
60.02938435012956
 51
180.0
  0
ARC
  5
6AE
330
1F
100
AcDbEntity
  8
Sichtbare_Kanten_TC_020513_DIN_
  6
Continuous
 62
     7
100
AcDbCircle
 10
94.63740551460336
 20
92.67016735709552
 30
0.0
 40
0.25
100
AcDbArc
 50
180.0
 51
0.0
  0
ARC
  5
6AF
330
1F
100
AcDbEntity
  8
Sichtbare_Kanten_TC_020513_DIN_
  6
Continuous
 62
     7
100
AcDbCircle
 10
94.63740551460336
 20
94.65016735709553
 30
0.0
 40
0.25
100
AcDbArc
 50
0.0
 51
180.0
  0
ARC
  5
6B0
330
1F
100
AcDbEntity
  8
Sichtbare_Kanten_TC_020513_DIN_
  6
Continuous
 62
     7
100
AcDbCircle
 10
95.63740551460336
 20
92.10383396823153
 30
0.0
 40
0.25
100
AcDbArc
 50
180.0
 51
240.0293843498351
  0
ARC
  5
6B1
330
1F
100
AcDbEntity
  8
Sichtbare_Kanten_TC_020513_DIN_
  6
Continuous
 62
     7
100
AcDbCircle
 10
97.63740551460336
 20
90.95050063489852
 30
0.0
 40
0.2499999999996315
100
AcDbArc
 50
240.0293843498335
 51
60.02938435012956
  0
ARC
  5
6B2
330
1F
100
AcDbEntity
  8
Sichtbare_Kanten_TC_020513_DIN_
  6
Continuous
 62
     7
100
AcDbCircle
 10
95.63740551460336
 20
95.21650074596052
 30
0.0
 40
0.25
100
AcDbArc
 50
0.0
 51
180.0
  0
ARC
  5
6B3
330
1F
100
AcDbEntity
  8
Sichtbare_Kanten_TC_020513_DIN_
  6
Continuous
 62
     7
100
AcDbCircle
 10
98.63740551460336
 20
91.52716730156553
 30
0.0
 40
0.25
100
AcDbArc
 50
180.0
 51
0.0
  0
ARC
  5
6B4
330
1F
100
AcDbEntity
  8
Sichtbare_Kanten_TC_020513_DIN_
  6
Continuous
 62
     7
100
AcDbCircle
 10
98.63740551460336
 20
95.79316741262753
 30
0.0
 40
0.25
100
AcDbArc
 50
0.0
 51
143.2525021774233
  0
ARC
  5
6B5
330
1F
100
AcDbEntity
  8
Sichtbare_Kanten_TC_020513_DIN_
  6
Continuous
 62
     7
100
AcDbCircle
 10
96.63740551460336
 20
95.79316741262753
 30
0.0
 40
0.2499999999996815
100
AcDbArc
 50
36.74749782256111
 51
180.0
  0
ARC
  5
6B6
330
1F
100
AcDbEntity
  8
Sichtbare_Kanten_TC_020513_DIN_
  6
Continuous
 62
     7
100
AcDbCircle
 10
96.63740551460336
 20
92.67016735709552
 30
0.0
 40
0.25
100
AcDbArc
 50
180.0
 51
0.0
  0
ARC
  5
6B7
330
1F
100
AcDbEntity
  8
Sichtbare_Kanten_TC_020513_DIN_
  6
Continuous
 62
     7
100
AcDbCircle
 10
158.4374055146034
 20
114.6601673570955
 30
0.0
 40
8.0
100
AcDbArc
 50
0.0
 51
90.0
  0
ARC
  5
6B8
330
1F
100
AcDbEntity
  8
Sichtbare_Kanten_TC_020513_DIN_
  6
Continuous
 62
     7
100
AcDbCircle
 10
145.1374055146034
 20
123.1601673570955
 30
0.0
 40
0.4999999999999151
100
AcDbArc
 50
220.029018176398
 51
270.0
  0
ARC
  5
6B9
330
1F
100
AcDbEntity
  8
Sichtbare_Kanten_TC_020513_DIN_
  6
Continuous
 62
     7
100
AcDbCircle
 10
129.4401701776714
 20
109.9750696033065
 30
0.0
 40
20.00000000000004
100
AcDbArc
 50
40.02901817645225
 51
64.00779443620857
  0
ARC
  5
6BA
330
1F
100
AcDbEntity
  8
Sichtbare_Kanten_TC_020513_DIN_
  6
Continuous
 62
     7
100
AcDbCircle
 10
135.1374055146034
 20
121.6601673570955
 30
0.0
 40
6.999999999999725
100
AcDbArc
 50
64.00779443621322
 51
180.0
  0
ARC
  5
6BB
330
1F
100
AcDbEntity
  8
Sichtbare_Kanten_TC_020513_DIN_
  6
Continuous
 62
     7
100
AcDbCircle
 10
128.6374055146034
 20
108.1601673570955
 30
0.0
 40
0.5
100
AcDbArc
 50
180.0
 51
251.6923269006526
  0
ARC
  5
6BC
330
1F
100
AcDbEntity
  8
Sichtbare_Kanten_TC_020513_DIN_
  6
Continuous
 62
     7
100
AcDbCircle
 10
133.1921397293194
 20
121.9262269324895
 30
0.0
 40
14.99999999999986
100
AcDbArc
 50
251.6923269007101
 51
334.117948403567
  0
ARC
  5
6BD
330
1F
100
AcDbEntity
  8
Sichtbare_Kanten_TC_020513_DIN_
  6
Continuous
 62
     7
100
AcDbCircle
 10
147.1374055146034
 20
115.1601673570955
 30
0.0
 40
0.5
100
AcDbArc
 50
90.0
 51
154.1179484035514
  0
ARC
  5
6BE
330
1F
100
AcDbEntity
  8
Sichtbare_Kanten_TC_020513_DIN_
  6
Continuous
 62
     7
100
AcDbCircle
 10
158.4374055146034
 20
114.6601673570955
 30
0.0
 40
1.0
100
AcDbArc
 50
0.0
 51
90.0
  0
ARC
  5
6BF
330
1F
100
AcDbEntity
  8
Sichtbare_Kanten_TC_020513_DIN_
  6
Continuous
 62
     7
100
AcDbCircle
 10
159.3997505995954
 20
109.3435300545045
 30
0.0
 40
0.1000000000000085
100
AcDbArc
 50
90.0
 51
180.0
  0
ARC
  5
6C0
330
1F
100
AcDbEntity
  8
Sichtbare_Kanten_TC_020513_DIN_
  6
Continuous
 62
     7
100
AcDbCircle
 10
159.3997505995954
 20
109.3435300545045
 30
0.0
 40
1.5
100
AcDbArc
 50
90.0
 51
180.0
  0
ARC
  5
6C1
330
1F
100
AcDbEntity
  8
Sichtbare_Kanten_TC_020513_DIN_
  6
Continuous
 62
     7
100
AcDbCircle
 10
36.8374055146034
 20
114.6601673570955
 30
0.0
 40
1.0
100
AcDbArc
 50
90.0
 51
180.0
  0
ARC
  5
6C2
330
1F
100
AcDbEntity
  8
Sichtbare_Kanten_TC_020513_DIN_
  6
Continuous
 62
     7
100
AcDbCircle
 10
48.13740551460336
 20
115.1601673570955
 30
0.0
 40
0.4999999999997677
100
AcDbArc
 50
25.88205159644147
 51
90.0
  0
ARC
  5
6C3
330
1F
100
AcDbEntity
  8
Sichtbare_Kanten_TC_020513_DIN_
  6
Continuous
 62
     7
100
AcDbCircle
 10
62.08267129988742
 20
121.9262269324895
 30
0.0
 40
15.00000000000008
100
AcDbArc
 50
205.8820515964331
 51
288.3076730992864
  0
ARC
  5
6C4
330
1F
100
AcDbEntity
  8
Sichtbare_Kanten_TC_020513_DIN_
  6
Continuous
 62
     7
100
AcDbCircle
 10
66.63740551460336
 20
108.1601673570955
 30
0.0
 40
0.4999999999995331
100
AcDbArc
 50
288.3076730992515
 51
0.0
  0
ARC
  5
6C5
330
1F
100
AcDbEntity
  8
Sichtbare_Kanten_TC_020513_DIN_
  6
Continuous
 62
     7
100
AcDbCircle
 10
60.13740551460336
 20
121.6601673570955
 30
0.0
 40
7.0
100
AcDbArc
 50
0.0
 51
115.9922055637935
  0
ARC
  5
6C6
330
1F
100
AcDbEntity
  8
Sichtbare_Kanten_TC_020513_DIN_
  6
Continuous
 62
     7
100
AcDbCircle
 10
65.8346408515344
 20
109.9750696033065
 30
0.0
 40
19.99999999999938
100
AcDbArc
 50
115.9922055637914
 51
139.9709818235459
  0
ARC
  5
6C7
330
1F
100
AcDbEntity
  8
Sichtbare_Kanten_TC_020513_DIN_
  6
Continuous
 62
     7
100
AcDbCircle
 10
50.13740551460336
 20
123.1601673570955
 30
0.0
 40
0.5
100
AcDbArc
 50
270.0
 51
319.9709818236083
  0
ARC
  5
6C8
330
1F
100
AcDbEntity
  8
Sichtbare_Kanten_TC_020513_DIN_
  6
Continuous
 62
     7
100
AcDbCircle
 10
36.8374055146034
 20
114.6601673570955
 30
0.0
 40
8.0
100
AcDbArc
 50
90.0
 51
180.0
  0
ARC
  5
6C9
330
1F
100
AcDbEntity
  8
Sichtbare_Kanten_TC_020513_DIN_
  6
Continuous
 62
     7
100
AcDbCircle
 10
55.31944321973145
 20
133.1601673570955
 30
0.0
 40
0.5000000000005355
100
AcDbArc
 50
159.7314654157711
 51
214.731465415686
  0
ARC
  5
6CA
330
1F
100
AcDbEntity
  8
Sichtbare_Kanten_TC_020513_DIN_
  6
Continuous
 62
     7
100
AcDbCircle
 10
60.13740551460336
 20
134.6601673570955
 30
0.0
 40
4.500000000000204
100
AcDbArc
 50
61.04497562813545
 51
159.7314654157202
  0
ARC
  5
6CB
330
1F
100
AcDbEntity
  8
Sichtbare_Kanten_TC_020513_DIN_
  6
Continuous
 62
     7
100
AcDbCircle
 10
64.39768719543139
 20
142.3601673570955
 30
0.0
 40
4.299999999999724
100
AcDbArc
 50
241.0449756281465
 51
90.0
  0
ARC
  5
6CC
330
1F
100
AcDbEntity
  8
Sichtbare_Kanten_TC_020513_DIN_
  6
Continuous
 62
     7
100
AcDbCircle
 10
56.39768719543139
 20
111.6601673570955
 30
0.0
 40
35.0
100
AcDbArc
 50
90.0
 51
121.496692842146
  0
ARC
  5
6CD
330
1F
100
AcDbEntity
  8
Sichtbare_Kanten_TC_020513_DIN_
  6
Continuous
 62
     7
100
AcDbCircle
 10
36.13740551460336
 20
130.0211526920905
 30
0.0
 40
1.0
100
AcDbArc
 50
270.0
 51
321.6559393353879
  0
ARC
  5
6CE
330
1F
100
AcDbEntity
  8
Sichtbare_Kanten_TC_020513_DIN_
  6
Continuous
 62
     7
100
AcDbCircle
 10
40.13740551460336
 20
132.6601673570955
 30
0.0
 40
0.4999999999997636
100
AcDbArc
 50
51.65593933542674
 51
141.6559393353359
  0
ARC
  5
6CF
330
1F
100
AcDbEntity
  8
Sichtbare_Kanten_TC_020513_DIN_
  6
Continuous
 62
     7
100
AcDbCircle
 10
50.25116240383744
 20
124.6601673570955
 30
0.0
 40
0.5000000000001614
100
AcDbArc
 50
5.00000000001779
 51
51.65593933534601
  0
ARC
  5
6D0
330
1F
100
AcDbEntity
  8
Sichtbare_Kanten_TC_020513_DIN_
  6
Continuous
 62
     7
100
AcDbCircle
 10
35.87506042961041
 20
109.3435300545045
 30
0.0
 40
1.5
100
AcDbArc
 50
0.0
 51
90.0
  0
ARC
  5
6D1
330
1F
100
AcDbEntity
  8
Sichtbare_Kanten_TC_020513_DIN_
  6
Continuous
 62
     7
100
AcDbCircle
 10
35.87506042961041
 20
109.3435300545045
 30
0.0
 40
0.1000000000000298
100
AcDbArc
 50
0.0
 51
90.0
  0
ARC
  5
6D2
330
1F
100
AcDbEntity
  8
Sichtbare_Kanten_TC_020513_DIN_
  6
Continuous
 62
     7
100
AcDbCircle
 10
145.0236486253684
 20
124.6601673570955
 30
0.0
 40
0.4999999999997395
100
AcDbArc
 50
128.3440606645672
 51
174.9999999999811
  0
ARC
  5
6D3
330
1F
100
AcDbEntity
  8
Sichtbare_Kanten_TC_020513_DIN_
  6
Continuous
 62
     7
100
AcDbCircle
 10
155.1374055146034
 20
132.6601673570955
 30
0.0
 40
0.5000000000003678
100
AcDbArc
 50
38.34406066465554
 51
128.3440606646575
  0
ARC
  5
6D4
330
1F
100
AcDbEntity
  8
Sichtbare_Kanten_TC_020513_DIN_
  6
Continuous
 62
     7
100
AcDbCircle
 10
159.1374055146034
 20
130.0211526920905
 30
0.0
 40
1.000000000000091
100
AcDbArc
 50
218.3440606646141
 51
270.0
  0
ARC
  5
6D5
330
1F
100
AcDbEntity
  8
Sichtbare_Kanten_TC_020513_DIN_
  6
Continuous
 62
     7
100
AcDbCircle
 10
138.8771238337754
 20
111.6601673570955
 30
0.0
 40
34.99999999999983
100
AcDbArc
 50
58.50330715785395
 51
90.0
  0
ARC
  5
6D6
330
1F
100
AcDbEntity
  8
Sichtbare_Kanten_TC_020513_DIN_
  6
Continuous
 62
     7
100
AcDbCircle
 10
130.8771238337754
 20
142.3601673570955
 30
0.0
 40
4.300000000000011
100
AcDbArc
 50
90.0
 51
298.9550243718543
  0
ARC
  5
6D7
330
1F
100
AcDbEntity
  8
Sichtbare_Kanten_TC_020513_DIN_
  6
Continuous
 62
     7
100
AcDbCircle
 10
135.1374055146034
 20
134.6601673570955
 30
0.0
 40
4.500000000000239
100
AcDbArc
 50
20.26853458427936
 51
118.9550243718632
  0
ARC
  5
6D8
330
1F
100
AcDbEntity
  8
Sichtbare_Kanten_TC_020513_DIN_
  6
Continuous
 62
     7
100
AcDbCircle
 10
139.9553678094754
 20
133.1601673570955
 30
0.0
 40
0.4999999999998367
100
AcDbArc
 50
325.2685345843108
 51
20.26853458422832
  0
ARC
  5
6D9
330
1F
100
AcDbEntity
  8
Sichtbare_Kanten_TC_020513_DIN_
  6
Continuous
 62
     7
100
AcDbCircle
 10
237.4189710240464
 20
85.05016735709552
 30
0.0
 40
15.13999999999598
100
AcDbArc
 50
0.0
 51
180.0
  0
ARC
  5
6DA
330
1F
100
AcDbEntity
  8
Sichtbare_Kanten_TC_020513_DIN_
  6
Continuous
 62
     7
100
AcDbCircle
 10
265.2189710240523
 20
117.6601673570955
 30
0.0
 40
0.6999999999998749
100
AcDbArc
 50
180.0
 51
0.0
  0
ARC
  5
6DB
330
1F
100
AcDbEntity
  8
Sichtbare_Kanten_TC_020513_DIN_
  6
Continuous
 62
     7
100
AcDbCircle
 10
265.2189710240523
 20
125.6601673570955
 30
0.0
 40
0.7000000000011255
100
AcDbArc
 50
0.0
 51
180.0
  0
ARC
  5
6DC
330
1F
100
AcDbEntity
  8
Sichtbare_Kanten_TC_020513_DIN_
  6
Continuous
 62
     7
100
AcDbCircle
 10
209.6189710240533
 20
125.6601673570955
 30
0.0
 40
0.7000000000001023
100
AcDbArc
 50
0.0
 51
180.0
  0
ARC
  5
6DD
330
1F
100
AcDbEntity
  8
Sichtbare_Kanten_TC_020513_DIN_
  6
Continuous
 62
     7
100
AcDbCircle
 10
209.6189710240533
 20
117.6601673570955
 30
0.0
 40
0.6999999999999034
100
AcDbArc
 50
180.0
 51
0.0
  0
ARC
  5
6DE
330
1F
100
AcDbEntity
  8
Sichtbare_Kanten_TC_020513_DIN_
  6
Continuous
 62
     7
100
AcDbCircle
 10
213.7189710240434
 20
112.2435300545045
 30
0.0
 40
2.800000000000011
100
AcDbArc
 50
180.0
 51
270.0
  0
ARC
  5
6DF
330
1F
100
AcDbEntity
  8
Sichtbare_Kanten_TC_020513_DIN_
  6
Continuous
 62
     7
100
AcDbCircle
 10
213.7189710240434
 20
112.2435300545045
 30
0.0
 40
1.400000000000006
100
AcDbArc
 50
180.0
 51
270.0
  0
ARC
  5
6E0
330
1F
100
AcDbEntity
  8
Sichtbare_Kanten_TC_020513_DIN_
  6
Continuous
 62
     7
100
AcDbCircle
 10
227.1356083266364
 20
109.0058751394975
 30
0.0
 40
0.5
100
AcDbArc
 50
270.0
 51
0.0
  0
ARC
  5
6E1
330
1F
100
AcDbEntity
  8
Sichtbare_Kanten_TC_020513_DIN_
  6
Continuous
 62
     7
100
AcDbCircle
 10
247.7023337214554
 20
109.0058751394975
 30
0.0
 40
0.5
100
AcDbArc
 50
180.0
 51
270.0
  0
ARC
  5
6E2
330
1F
100
AcDbEntity
  8
Sichtbare_Kanten_TC_020513_DIN_
  6
Continuous
 62
     7
100
AcDbCircle
 10
253.9523337214534
 20
138.5211526920905
 30
0.0
 40
1.499999999999329
100
AcDbArc
 50
226.2398789709954
 51
270.0
  0
ARC
  5
6E3
330
1F
100
AcDbEntity
  8
Sichtbare_Kanten_TC_020513_DIN_
  6
Continuous
 62
     7
100
AcDbCircle
 10
256.8415191427894
 20
138.0211526920905
 30
0.0
 40
1.0
100
AcDbArc
 50
270.0
 51
320.0000000000236
  0
ARC
  5
6E4
330
1F
100
AcDbEntity
  8
Sichtbare_Kanten_TC_020513_DIN_
  6
Continuous
 62
     7
100
AcDbCircle
 10
253.9523337214534
 20
128.7711526920905
 30
0.0
 40
0.25
100
AcDbArc
 50
90.0
 51
164.9999999999137
  0
ARC
  5
6E5
330
1F
100
AcDbEntity
  8
Sichtbare_Kanten_TC_020513_DIN_
  6
Continuous
 62
     7
100
AcDbCircle
 10
220.8856083266354
 20
138.5211526920905
 30
0.0
 40
1.5
100
AcDbArc
 50
270.0
 51
313.7601210290321
  0
ARC
  5
6E6
330
1F
100
AcDbEntity
  8
Sichtbare_Kanten_TC_020513_DIN_
  6
Continuous
 62
     7
100
AcDbCircle
 10
217.9964229052994
 20
138.0211526920905
 30
0.0
 40
0.999999999999733
100
AcDbArc
 50
219.9999999999722
 51
270.0
  0
ARC
  5
6E7
330
1F
100
AcDbEntity
  8
Sichtbare_Kanten_TC_020513_DIN_
  6
Continuous
 62
     7
100
AcDbCircle
 10
220.8856083266354
 20
128.7711526920905
 30
0.0
 40
0.2499999999998214
100
AcDbArc
 50
15.0000000000931
 51
90.0
  0
ARC
  5
6E8
330
1F
100
AcDbEntity
  8
Sichtbare_Kanten_TC_020513_DIN_
  6
Continuous
 62
     7
100
AcDbCircle
 10
261.1189710240433
 20
112.2435300545045
 30
0.0
 40
2.799999999999997
100
AcDbArc
 50
270.0
 51
0.0
  0
ARC
  5
6E9
330
1F
100
AcDbEntity
  8
Sichtbare_Kanten_TC_020513_DIN_
  6
Continuous
 62
     7
100
AcDbCircle
 10
261.1189710240433
 20
112.2435300545045
 30
0.0
 40
1.400000000000006
100
AcDbArc
 50
270.0
 51
0.0
  0
ARC
  5
6EA
330
1F
100
AcDbEntity
  8
Sichtbare_Kanten_TC_020513_DIN_
  6
Continuous
 62
     7
100
AcDbCircle
 10
261.3189710240534
 20
111.5225124420885
 30
0.0
 40
0.0999999999999659
100
AcDbArc
 50
180.0
 51
270.0
  0
ARC
  5
6EB
330
1F
100
AcDbEntity
  8
Sichtbare_Kanten_TC_020513_DIN_
  6
Continuous
 62
     7
100
AcDbCircle
 10
261.3189710240534
 20
111.5225124420885
 30
0.0
 40
1.5
100
AcDbArc
 50
180.0
 51
206.9141492018864
  0
ARC
  5
6EC
330
1F
100
AcDbEntity
  8
Sichtbare_Kanten_TC_020513_DIN_
  6
Continuous
 62
     7
100
AcDbCircle
 10
213.5189710240534
 20
111.5225124420885
 30
0.0
 40
0.0999999999999943
100
AcDbArc
 50
270.0
 51
0.0
  0
ARC
  5
6ED
330
1F
100
AcDbEntity
  8
Sichtbare_Kanten_TC_020513_DIN_
  6
Continuous
 62
     7
100
AcDbCircle
 10
213.5189710240534
 20
111.5225124420885
 30
0.0
 40
1.500000000000191
100
AcDbArc
 50
333.0858507981141
 51
0.0
  0
ARC
  5
6EE
330
1F
100
AcDbEntity
  8
Stich_1-Linien_TC_020513_DIN_
  6
DASHED_SPACE
 62
     7
100
AcDbCircle
 10
63.13740551460337
 20
110.6601673570955
 30
0.0
 40
48.93394997171624
100
AcDbArc
 50
130.0030516403834
 51
180.0
  0
ARC
  5
6EF
330
1F
100
AcDbEntity
  8
Stich_1-Linien_TC_020513_DIN_
  6
DASHED_SPACE
 62
     7
100
AcDbCircle
 10
132.1374055146034
 20
110.6601673570955
 30
0.0
 40
48.933949971716
100
AcDbArc
 50
0.0
 51
49.9969483596166
  0
CIRCLE
  5
6F0
330
1F
100
AcDbEntity
  8
Sichtbare_Kanten_TC_020513_DIN_
  6
Continuous
 62
     7
100
AcDbCircle
 10
135.1374055146034
 20
121.6601673570955
 30
0.0
 40
4.700000000000017
  0
CIRCLE
  5
6F1
330
1F
100
AcDbEntity
  8
Sichtbare_Kanten_TC_020513_DIN_
  6
Continuous
 62
     7
100
AcDbCircle
 10
60.13740551460336
 20
121.6601673570955
 30
0.0
 40
4.700000000000045
  0
CIRCLE
  5
6F2
330
1F
100
AcDbEntity
  8
Sichtbare_Kanten_TC_020513_DIN_
  6
Continuous
 62
     7
100
AcDbCircle
 10
132.1374055146034
 20
110.6601673570955
 30
0.0
 40
1.75
  0
CIRCLE
  5
6F3
330
1F
100
AcDbEntity
  8
Sichtbare_Kanten_TC_020513_DIN_
  6
Continuous
 62
     7
100
AcDbCircle
 10
63.13740551460337
 20
110.6601673570955
 30
0.0
 40
1.749999999999986
  0
CIRCLE
  5
6F4
330
1F
100
AcDbEntity
  8
Sichtbare_Kanten_TC_020513_DIN_
  6
Continuous
 62
     7
100
AcDbCircle
 10
237.4189710240464
 20
85.05016735709552
 30
0.0
 40
10.38999999999987
  0
CIRCLE
  5
6F5
330
1F
100
AcDbEntity
  8
Sichtbare_Kanten_TC_020513_DIN_
  6
Continuous
 62
     7
100
AcDbCircle
 10
237.4189710240464
 20
85.05016735709552
 30
0.0
 40
13.38999999999598
  0
SPLINE
  5
6F6
330
1F
100
AcDbEntity
  8
Sichtbare_Kanten_TC_020513_DIN_
  6
Continuous
 62
     7
100
AcDbSpline
210
0.0
220
0.0
230
1.0
 70
     8
 71
     3
 72
    27
 73
    23
 74
    21
 42
0.000000001
 43
0.0000000001
 44
0.00000001
 40
0.0
 40
0.0
 40
0.0
 40
0.0
 40
0.3221931108053744
 40
0.644386259589941
 40
0.7269584000257021
 40
0.809512034540161
 40
0.8920720119064338
 40
0.9746369352956559
 40
1.058610482934871
 40
1.142583203492098
 40
1.226557532157338
 40
1.310532151925982
 40
1.39581120339526
 40
1.481090504967233
 40
1.566369061935332
 40
1.651648017873589
 40
1.737974449688526
 40
1.824299557385568
 40
1.910627747514511
 40
1.996962013389344
 40
2.258079001630375
 40
2.519195807812828
 40
2.519195807812828
 40
2.519195807812828
 40
2.519195807812828
 10
223.3597343213203
 20
121.3609389269075
 30
0.0
 10
223.395929265583
 20
121.2595014803474
 30
0.0
 10
223.4683191719792
 20
121.0566265807559
 30
0.0
 10
223.6027043286548
 20
120.8521567814154
 30
0.0
 10
223.7047252478328
 20
120.7258172039118
 30
0.0
 10
223.7595382107272
 20
120.6640184448888
 30
0.0
 10
223.816985649429
 20
120.6046931358086
 30
0.0
 10
223.8773154965611
 20
120.5476030450567
 30
0.0
 10
223.9404237398899
 20
120.4928802521498
 30
0.0
 10
224.0062047254069
 20
120.4406427570107
 30
0.0
 10
224.0741519884298
 20
120.3912564764169
 30
0.0
 10
224.1444823245871
 20
120.3445365606578
 30
0.0
 10
224.2170876977379
 20
120.3005901106079
 30
0.0
 10
224.2918478182646
 20
120.2595095607841
 30
0.0
 10
224.3682418206203
 20
120.2215547280109
 30
0.0
 10
224.4464436313521
 20
120.1866169395563
 30
0.0
 10
224.5263316167346
 20
120.154770780116
 30
0.0
 10
224.607777842715
 20
120.1260923822767
 30
0.0
 10
224.6903202288411
 20
120.1006970304801
 30
0.0
 10
224.8301464734411
 20
120.0639064839115
 30
0.0
 10
225.0303315411137
 20
120.0263530245076
 30
0.0
 10
225.2045011829177
 20
120.0204261924607
 30
0.0
 10
225.2915859738984
 20
120.0174627848535
 30
0.0
 11
223.3597343213203
 21
121.3609389269075
 31
0.0
 11
223.4800019096094
 21
121.0620340774068
 31
0.0
 11
223.6532818853212
 21
120.7904047774756
 31
0.0
 11
223.7052224973789
 21
120.7262149708682
 31
0.0
 11
223.759976098073
 21
120.6644319161013
 31
0.0
 11
223.8174075719201
 21
120.6051210760722
 31
0.0
 11
223.8773724115253
 21
120.548365594815
 31
0.0
 11
223.9408102262177
 21
120.4933455944806
 31
0.0
 11
224.0065652916327
 21
120.4411183101
 31
0.0
 11
224.0744886162711
 21
120.3917410895839
 31
0.0
 11
224.1444331011963
 21
120.3452706059148
 31
0.0
 11
224.2173847555622
 21
120.3011053163429
 31
0.0
 11
224.2921203527648
 21
120.2600303867204
 31
0.0
 11
224.3684898690507
 21
120.2220813509607
 31
0.0
 11
224.4463494504168
 21
120.1872907492405
 31
0.0
 11
224.5265375693461
 21
120.1553201617422
 31
0.0
 11
224.6079591416342
 21
120.1266399972326
 31
0.0
 11
224.6904750706633
 21
120.1012691888591
 31
0.0
 11
224.7739478836937
 21
120.0792261627956
 31
0.0
 11
225.0309275376418
 21
120.0329277881069
 31
0.0
 11
225.2915859738984
 21
120.0174627848535
 31
0.0
  0
SPLINE
  5
6F7
330
1F
100
AcDbEntity
  8
Sichtbare_Kanten_TC_020513_DIN_
  6
Continuous
 62
     7
100
AcDbSpline
210
0.0
220
0.0
230
1.0
 70
     8
 71
     3
 72
    27
 73
    23
 74
    21
 42
0.000000001
 43
0.0000000001
 44
0.00000001
 40
0.0
 40
0.0
 40
0.0
 40
0.0
 40
0.3221931108054381
 40
0.6443862595897414
 40
0.7269584000255961
 40
0.8095120345401763
 40
0.8920720119064287
 40
0.9746369352956008
 40
1.058610482934906
 40
1.142583203492322
 40
1.226557532157644
 40
1.310532151926351
 40
1.39581120339554
 40
1.481090504967445
 40
1.566369061935468
 40
1.65164801787365
 40
1.737974449688619
 40
1.824299557385679
 40
1.910627747514607
 40
1.996962013389491
 40
2.25807900163042
 40
2.519195807812928
 40
2.519195807812928
 40
2.519195807812928
 40
2.519195807812928
 10
223.3597343213203
 20
120.7692733604705
 30
0.0
 10
223.3959292655832
 20
120.6678359139104
 30
0.0
 10
223.4683191719796
 20
120.4649610143192
 30
0.0
 10
223.6027043286543
 20
120.2604912149782
 30
0.0
 10
223.7047252478326
 20
120.1341516374747
 30
0.0
 10
223.7595382107271
 20
120.0723528784518
 30
0.0
 10
223.816985649429
 20
120.0130275693716
 30
0.0
 10
223.877315496561
 20
119.9559374786197
 30
0.0
 10
223.9404237398899
 20
119.9012146857128
 30
0.0
 10
224.006204725407
 20
119.8489771905736
 30
0.0
 10
224.0741519884298
 20
119.7995909099795
 30
0.0
 10
224.144482324587
 20
119.7528709942201
 30
0.0
 10
224.2170876977377
 20
119.7089245441704
 30
0.0
 10
224.2918478182648
 20
119.6678439943469
 30
0.0
 10
224.3682418206204
 20
119.629889161574
 30
0.0
 10
224.4464436313521
 20
119.5949513731193
 30
0.0
 10
224.5263316167346
 20
119.563105213679
 30
0.0
 10
224.6077778427151
 20
119.5344268158398
 30
0.0
 10
224.6903202288411
 20
119.5090314640431
 30
0.0
 10
224.8301464734411
 20
119.4722409174745
 30
0.0
 10
225.0303315411137
 20
119.4346874580705
 30
0.0
 10
225.2045011829177
 20
119.4287606260236
 30
0.0
 10
225.2915859738984
 20
119.4257972184165
 30
0.0
 11
223.3597343213203
 21
120.7692733604705
 31
0.0
 11
223.4800019096096
 21
120.4703685109698
 31
0.0
 11
223.6532818853208
 21
120.1987392110386
 31
0.0
 11
223.7052224973787
 21
120.1345494044312
 31
0.0
 11
223.7599760980729
 21
120.0727663496642
 31
0.0
 11
223.8174075719201
 21
120.0134555096352
 31
0.0
 11
223.8773724115253
 21
119.9567000283781
 31
0.0
 11
223.9408102262177
 21
119.9016800280436
 31
0.0
 11
224.0065652916328
 21
119.8494527436628
 31
0.0
 11
224.0744886162711
 21
119.8000755231464
 31
0.0
 11
224.1444331011963
 21
119.7536050394771
 31
0.0
 11
224.2173847555622
 21
119.7094397499054
 31
0.0
 11
224.2921203527649
 21
119.6683648202832
 31
0.0
 11
224.3684898690507
 21
119.6304157845237
 31
0.0
 11
224.4463494504168
 21
119.5956251828035
 31
0.0
 11
224.5265375693461
 21
119.5636545953052
 31
0.0
 11
224.6079591416342
 21
119.5349744307957
 31
0.0
 11
224.6904750706633
 21
119.5096036224221
 31
0.0
 11
224.7739478836938
 21
119.4875605963586
 31
0.0
 11
225.0309275376418
 21
119.4412622216698
 31
0.0
 11
225.2915859738984
 21
119.4257972184165
 31
0.0
  0
SPLINE
  5
6F8
330
1F
100
AcDbEntity
  8
Sichtbare_Kanten_TC_020513_DIN_
  6
Continuous
 62
     7
100
AcDbSpline
210
0.0
220
0.0
230
1.0
 70
     8
 71
     3
 72
    27
 73
    23
 74
    21
 42
0.000000001
 43
0.0000000001
 44
0.00000001
 40
0.0
 40
0.0
 40
0.0
 40
0.0
 40
0.3474587712194537
 40
0.6949175349227705
 40
0.7807670179544809
 40
0.8666048652539894
 40
0.952447523487799
 40
1.038292882076302
 40
1.122943334366923
 40
1.207593045839839
 40
1.292242477173579
 40
1.376891647662462
 40
1.460164144651504
 40
1.543436530720751
 40
1.626706197603387
 40
1.709975967017166
 40
1.791843740645899
 40
1.873709108849501
 40
1.955577585263151
 40
2.037454974935968
 40
2.278374756850389
 40
2.519294154158826
 40
2.519294154158826
 40
2.519294154158826
 40
2.519294154158826
 10
249.5463560741884
 20
120.0174627848535
 30
0.0
 10
249.6622830868018
 20
120.0227037707742
 30
0.0
 10
249.8941371083566
 20
120.033185757271
 30
0.0
 10
250.1483261833842
 20
120.0974006024724
 30
0.0
 10
250.3115645236004
 20
120.1547436759566
 30
0.0
 10
250.3913341888554
 20
120.1865535667681
 30
0.0
 10
250.4697361483905
 20
120.2215613186423
 30
0.0
 10
250.5462760221405
 20
120.2596013957762
 30
0.0
 10
250.6208261373054
 20
120.3005842429924
 30
0.0
 10
250.6932704125468
 20
120.34442033457
 30
0.0
 10
250.7638116509892
 20
120.3912574100863
 30
0.0
 10
250.8319282755261
 20
120.4407800435665
 30
0.0
 10
250.8975056630895
 20
120.4928836344138
 30
0.0
 10
250.9604440584353
 20
120.5474473169697
 30
0.0
 10
251.0209585594101
 20
120.6046871508761
 30
0.0
 10
251.0785739805684
 20
120.6641947805993
 30
0.0
 10
251.1331917691266
 20
120.7258419927045
 30
0.0
 10
251.1847212752017
 20
120.7894883729286
 30
0.0
 10
251.2333763872538
 20
120.8553810402199
 30
0.0
 10
251.3083200420095
 20
120.9675164468972
 30
0.0
 10
251.4002696086276
 20
121.1325687065443
 30
0.0
 10
251.4522283724289
 20
121.284815558916
 30
0.0
 10
251.4782077267674
 20
121.3609389269075
 30
0.0
 11
249.5463560741884
 21
120.0174627848535
 31
0.0
 11
249.8927335150706
 21
120.044853771469
 31
0.0
 11
250.23039636084
 21
120.1267768796485
 31
0.0
 11
250.3113669738771
 21
120.1553057000972
 31
0.0
 11
250.3911049799881
 21
120.1870859840497
 31
0.0
 11
250.4694840733838
 21
120.2220956931533
 31
0.0
 11
250.5463560741889
 21
120.2603072244842
 31
0.0
 11
250.6205336189394
 21
120.301091914905
 31
0.0
 11
250.6929533821484
 21
120.3449205767289
 31
0.0
 11
250.7634695281722
 21
120.3917500485024
 31
0.0
 11
250.8319312935624
 21
120.4415342708965
 31
0.0
 11
250.8971258821361
 21
120.4933413595323
 31
0.0
 11
250.9600408648112
 21
120.547894043229
 31
0.0
 11
251.0205296619672
 21
120.6051211601249
 31
0.0
 11
251.0784449604266
 21
120.6649515267874
 31
0.0
 11
251.1327292256133
 21
120.7262340772233
 31
0.0
 11
251.1842412657615
 21
120.7898614951602
 31
0.0
 11
251.2328466411486
 21
120.8557399059149
 31
0.0
 11
251.2784068817575
 21
120.9237705718899
 31
0.0
 11
251.3936107874282
 21
121.135360747709
 31
0.0
 11
251.4782077267674
 21
121.3609389269075
 31
0.0
  0
SPLINE
  5
6F9
330
1F
100
AcDbEntity
  8
Sichtbare_Kanten_TC_020513_DIN_
  6
Continuous
 62
     7
100
AcDbSpline
210
0.0
220
0.0
230
1.0
 70
     8
 71
     3
 72
    27
 73
    23
 74
    21
 42
0.000000001
 43
0.0000000001
 44
0.00000001
 40
0.0
 40
0.0
 40
0.0
 40
0.0
 40
0.347458771218949
 40
0.6949175349219963
 40
0.7807670179536215
 40
0.8666048652532565
 40
0.9524475234872478
 40
1.038292882075942
 40
1.122943334366388
 40
1.207593045839046
 40
1.29224247717288
 40
1.376891647661981
 40
1.460164144651157
 40
1.543436530720497
 40
1.626706197603078
 40
1.709975967016857
 40
1.791843740645619
 40
1.873709108849163
 40
1.955577585262938
 40
2.037454974935818
 40
2.278374756849677
 40
2.519294154158047
 40
2.519294154158047
 40
2.519294154158047
 40
2.519294154158047
 10
249.5463560741894
 20
119.4257972184165
 30
0.0
 10
249.6622830868026
 20
119.4310382043375
 30
0.0
 10
249.8941371083571
 20
119.4415201908348
 30
0.0
 10
250.1483261833844
 20
119.5057350360352
 30
0.0
 10
250.3115645236007
 20
119.5630781095197
 30
0.0
 10
250.3913341888557
 20
119.5948880003311
 30
0.0
 10
250.469736148391
 20
119.6298957522053
 30
0.0
 10
250.5462760221412
 20
119.6679358293393
 30
0.0
 10
250.6208261373058
 20
119.7089186765554
 30
0.0
 10
250.693270412547
 20
119.7527547681332
 30
0.0
 10
250.7638116509894
 20
119.7995918436498
 30
0.0
 10
250.8319282755261
 20
119.8491144771302
 30
0.0
 10
250.8975056630901
 20
119.9012180679772
 30
0.0
 10
250.9604440584362
 20
119.9557817505328
 30
0.0
 10
251.020958559411
 20
120.0130215844391
 30
0.0
 10
251.0785739805694
 20
120.0725292141623
 30
0.0
 10
251.1331917691276
 20
120.1341764262674
 30
0.0
 10
251.1847212752027
 20
120.1978228064916
 30
0.0
 10
251.2333763872549
 20
120.263715473783
 30
0.0
 10
251.3083200420102
 20
120.3758508804602
 30
0.0
 10
251.4002696086275
 20
120.5409031401077
 30
0.0
 10
251.4522283724287
 20
120.6931499924791
 30
0.0
 10
251.4782077267674
 20
120.7692733604705
 30
0.0
 11
249.5463560741894
 21
119.4257972184165
 31
0.0
 11
249.8927335150711
 21
119.4531882050324
 31
0.0
 11
250.2303963608402
 21
119.5351113132115
 31
0.0
 11
250.3113669738773
 21
119.5636401336602
 31
0.0
 11
250.3911049799884
 21
119.5954204176128
 31
0.0
 11
250.4694840733843
 21
119.6304301267163
 31
0.0
 11
250.5463560741896
 21
119.6686416580472
 31
0.0
 11
250.62053361894
 21
119.7094263484681
 31
0.0
 11
250.6929533821486
 21
119.753255010292
 31
0.0
 11
250.7634695281723
 21
119.8000844820659
 31
0.0
 11
250.8319312935625
 21
119.8498687044602
 31
0.0
 11
250.8971258821366
 21
119.9016757930958
 31
0.0
 11
250.960040864812
 21
119.9562284767922
 31
0.0
 11
251.0205296619681
 21
120.0134555936879
 31
0.0
 11
251.0784449604276
 21
120.0732859603504
 31
0.0
 11
251.1327292256143
 21
120.1345685107863
 31
0.0
 11
251.1842412657625
 21
120.1981959287231
 31
0.0
 11
251.2328466411496
 21
120.2640743394779
 31
0.0
 11
251.2784068817585
 21
120.3321050054531
 31
0.0
 11
251.3936107874282
 21
120.5436951812721
 31
0.0
 11
251.4782077267674
 21
120.7692733604705
 31
0.0
  0
LWPOLYLINE
  5
6FA
330
1F
100
AcDbEntity
  8
Sichtbare_Kanten_TC_020513_DIN_
  6
Continuous
 62
     7
100
AcDbPolyline
 90
       25
 70
     0
 43
0.0
 10
162.1663810013584
 20
126.2776444164595
 10
162.1452714203654
 20
126.3240087834685
 10
162.1250201462564
 20
126.3707298842755
 10
162.1056247948464
 20
126.4177960959755
 10
162.0870949028784
 20
126.4651951996175
 10
162.0694304703524
 20
126.5129155722945
 10
162.0526386498264
 20
126.5609452930775
 10
162.0367218254854
 20
126.6092718449915
 10
162.0216847657025
 20
126.6578839031545
 10
162.0075322388464
 20
126.7067692486135
 10
161.9942666291054
 20
126.7559156624165
 10
161.9818927048494
 20
126.8053112236345
 10
161.9704128502664
 20
126.8549446073855
 10
161.9598413704684
 20
126.9047788587895
 10
161.9501806496434
 20
126.9547758308735
 10
161.9414330719764
 20
127.0049241987555
 10
161.9335986374674
 20
127.0552108494125
 10
161.9266844986734
 20
127.1056226698245
 10
161.9206858872234
 20
127.1561483351075
 10
161.9156051873025
 20
127.2067747322405
 10
161.9114471672825
 20
127.2574887482015
 10
161.9082094429784
 20
127.3082784620605
 10
161.9058967827614
 20
127.3591313568435
 10
161.9045068024454
 20
127.4100343195285
 10
161.9040418862155
 20
127.4609754291855
  0
LWPOLYLINE
  5
6FB
330
1F
100
AcDbEntity
  8
Sichtbare_Kanten_TC_020513_DIN_
  6
Continuous
 62
     7
100
AcDbPolyline
 90
       25
 70
     0
 43
0.0
 10
163.3040429352574
 20
127.4609754291855
 10
163.3042742012794
 20
127.4355051723805
 10
163.3049703835304
 20
127.4100533930145
 10
163.3061267136384
 20
127.3846272436465
 10
163.3077455757914
 20
127.3592320886935
 10
163.3098245858004
 20
127.3338750807135
 10
163.3123637436684
 20
127.3085621801695
 10
163.3153630493934
 20
127.2832993475285
 10
163.3188201187904
 20
127.2580931392995
 10
163.3227373360455
 20
127.2329501119935
 10
163.3271123169714
 20
127.2078756300295
 10
163.3319426773845
 20
127.1828774420105
 10
163.3372284172825
 20
127.1579603163085
 10
163.3429671524814
 20
127.1331433264105
 10
163.3491541146095
 20
127.1084455458015
 10
163.3557869194804
 20
127.0838723388995
 10
163.3628631829075
 20
127.0594296661695
 10
163.3703829048924
 20
127.0351234880775
 10
163.3783413170634
 20
127.0109603611315
 10
163.3867360352334
 20
126.9869456497515
 10
163.3955694435884
 20
126.9630853144015
 10
163.4048343895724
 20
126.9393859115925
 10
163.4145308731845
 20
126.9158528057425
 10
163.4246565102395
 20
126.8924919573155
 10
163.4352113007364
 20
126.8693099228225
  0
LWPOLYLINE
  5
6FC
330
1F
100
AcDbEntity
  8
Sichtbare_Kanten_TC_020513_DIN_
  6
Continuous
 62
     7
100
AcDbPolyline
 90
       25
 70
     0
 43
0.0
 10
162.3947240113075
 20
139.0211526361785
 10
162.4604369400794
 20
139.1129700151765
 10
162.5298691986854
 20
139.2021492925965
 10
162.6029468773654
 20
139.2885712591495
 10
162.6795555352024
 20
139.3720737902015
 10
162.7593733071145
 20
139.4523028341615
 10
162.8422523735814
 20
139.5291379896485
 10
162.9280806778724
 20
139.6024958101595
 10
163.0167461632544
 20
139.6722976175635
 10
163.1081391571814
 20
139.7384599653565
 10
163.2021452187354
 20
139.8009017912235
 10
163.2986546753694
 20
139.8595408407535
 10
163.3975530861674
 20
139.9142960516295
 10
163.4987307785804
 20
139.9650851694435
 10
163.6019970177464
 20
140.0117937532745
 10
163.7069989441685
 20
140.0542572943055
 10
163.8135887383274
 20
140.0924257246345
 10
163.9216376541904
 20
140.1262537447295
 10
164.0310097931674
 20
140.1556984392485
 10
164.1415597199254
 20
140.1807109323825
 10
164.2529774903114
 20
140.2012185064635
 10
164.3650723694614
 20
140.2171961275425
 10
164.4777084587864
 20
140.2286271063175
 10
164.5907450913244
 20
140.2354971376745
 10
164.7040439842994
 20
140.2377895323125
  0
LWPOLYLINE
  5
6FD
330
1F
100
AcDbEntity
  8
Sichtbare_Kanten_TC_020513_DIN_
  6
Continuous
 62
     7
100
AcDbPolyline
 90
       25
 70
     0
 43
0.0
 10
164.7040439842994
 20
138.8377896753635
 10
164.6323968170934
 20
138.8359550443975
 10
164.5610834358984
 20
138.8304714170775
 10
164.4902373551184
 20
138.8213662115425
 10
164.4199944733434
 20
138.8086704222045
 10
164.3504954575354
 20
138.7924126592955
 10
164.2818738220984
 20
138.7726203409515
 10
164.2142702339945
 20
138.7493244615875
 10
164.1478205918124
 20
138.7225536314335
 10
164.0827800034334
 20
138.6923948732695
 10
164.0194965599824
 20
138.6590162721955
 10
163.9580870865634
 20
138.6225048509925
 10
163.8986684082805
 20
138.5829404798835
 10
163.8413525818644
 20
138.5404066053715
 10
163.7862540482334
 20
138.4949854818665
 10
163.7334848641214
 20
138.4467581716865
 10
163.6831594704444
 20
138.3958081213325
 10
163.6354447602084
 20
138.3422783819525
 10
163.5906101464084
 20
138.2864753214205
 10
163.5487414597324
 20
138.2285360304205
 10
163.5099149941264
 20
138.1685809103335
 10
163.4741998909764
 20
138.1067315546355
 10
163.4416676758584
 20
138.0431059805235
 10
163.4123922585304
 20
137.9778269735665
 10
163.3864475487524
 20
137.9110137430515
  0
LWPOLYLINE
  5
6FE
330
1F
100
AcDbEntity
  8
Sichtbare_Kanten_TC_020513_DIN_
  6
Continuous
 62
     7
100
AcDbPolyline
 90
       25
 70
     0
 43
0.0
 10
163.3864475487524
 20
137.9110137430515
 10
163.3815528153235
 20
137.8971222845405
 10
163.3762551544954
 20
137.8814748731935
 10
163.3706380127724
 20
137.8641668764435
 10
163.3647919892124
 20
137.8452984300935
 10
163.3588005303195
 20
137.8249672857605
 10
163.3527566193395
 20
137.8032711950625
 10
163.3467437027744
 20
137.7803102938025
 10
163.3408499954994
 20
137.7561811415045
 10
163.3351637123874
 20
137.7309814897865
 10
163.3297730683144
 20
137.7048126665435
 10
163.3247662781534
 20
137.6777700392095
 10
163.3202840088654
 20
137.6505235639895
 10
163.3164931534585
 20
137.6246360746705
 10
163.3133436440284
 20
137.6001993624055
 10
163.3107758759314
 20
137.5772229639375
 10
163.3087278603364
 20
137.5557164160095
 10
163.3071447609714
 20
137.5356916395515
 10
163.3059669731904
 20
137.5171557871185
 10
163.3051301239784
 20
137.5001195875495
 10
163.3045817612464
 20
137.4845937696775
 10
163.3042575119784
 20
137.4705878702485
 10
163.3040977715304
 20
137.4581126180975
 10
163.3040477036295
 20
137.4471763578735
 10
163.3040429352574
 20
137.4377898184145
  0
LWPOLYLINE
  5
6FF
330
1F
100
AcDbEntity
  8
Sichtbare_Kanten_TC_020513_DIN_
  6
Continuous
 62
     7
100
AcDbPolyline
 90
       25
 70
     0
 43
0.0
 10
160.9872890709694
 20
139.2421475855195
 10
160.9673429726415
 20
139.2510763613065
 10
160.9473706482705
 20
139.2600039450015
 10
160.9273792504125
 20
139.2689315286955
 10
160.9073640106975
 20
139.2778591123905
 10
160.8873296974954
 20
139.2867855039925
 10
160.8672763108064
 20
139.2957130876865
 10
160.8472014664464
 20
139.3046394792885
 10
160.8271099327854
 20
139.3135670629825
 10
160.8070017098244
 20
139.3224934545835
 10
160.7868767975625
 20
139.3314210382785
 10
160.7667351959994
 20
139.3403498140655
 10
160.7465769051365
 20
139.3492785898535
 10
160.7264090775304
 20
139.3582061735475
 10
160.7062293289955
 20
139.3671349493355
 10
160.6860400437174
 20
139.3760625330295
 10
160.6658436058814
 20
139.3849901167235
 10
160.6456376313025
 20
139.3939165083255
 10
160.6254245041665
 20
139.4028440920195
 10
160.6052042244724
 20
139.4117704836215
 10
160.5849815605935
 20
139.4206968752235
 10
160.5647517441564
 20
139.4296244589175
 10
160.5445171593485
 20
139.4385520426125
 10
160.5242825745394
 20
139.4474808183995
 10
160.5040432213594
 20
139.4564084020935
  0
LWPOLYLINE
  5
700
330
1F
100
AcDbEntity
  8
Sichtbare_Kanten_TC_020513_DIN_
  6
Continuous
 62
     7
100
AcDbPolyline
 90
       25
 70
     0
 43
0.0
 10
163.3040429352574
 20
138.3453623262725
 10
163.3040000199134
 20
138.3586374727575
 10
163.3038712738804
 20
138.3719126192415
 10
163.3036590813454
 20
138.3851865736335
 10
163.3033586739354
 20
138.3984605280245
 10
163.3029748200234
 20
138.4117332903235
 10
163.3025051354225
 20
138.4250072447145
 10
163.3019496201334
 20
138.4382811991065
 10
163.3013082741554
 20
138.4515539614045
 10
163.3005810974894
 20
138.4648279157965
 10
163.2997704743204
 20
138.4781018701875
 10
163.2988740204624
 20
138.4913770166725
 10
163.2978917359164
 20
138.5046509710635
 10
163.2968236206825
 20
138.5179261175475
 10
163.2956696747594
 20
138.5312012640325
 10
163.2944322823344
 20
138.5444752184235
 10
163.2931090592194
 20
138.5577491728155
 10
163.2917023896034
 20
138.5710219351135
 10
163.2902075051124
 20
138.5842958895055
 10
163.2886291741184
 20
138.5975698438965
 10
163.2869673966224
 20
138.6108426061955
 10
163.2852174042515
 20
138.6241165605865
 10
163.2833839653784
 20
138.6373905149785
 10
163.2814670800024
 20
138.6506656614625
 10
163.2794643639384
 20
138.6639408079475
  0
LWPOLYLINE
  5
701
330
1F
100
AcDbEntity
  8
Sichtbare_Kanten_TC_020513_DIN_
  6
Continuous
 62
     7
100
AcDbPolyline
 90
       25
 70
     0
 43
0.0
 10
163.2794643639384
 20
138.6639408079475
 10
163.2777143715674
 20
138.6753026453345
 10
163.2755399941264
 20
138.6889151541075
 10
163.2728244065104
 20
138.7045041529025
 10
163.2694555519874
 20
138.7218014208165
 10
163.2653237580115
 20
138.7405351606695
 10
163.2603098152924
 20
138.7604347673735
 10
163.2543088196574
 20
138.7812308279365
 10
163.2471991776284
 20
138.8026503530825
 10
163.2388759850314
 20
138.8244239298195
 10
163.2292200325784
 20
138.8462809530585
 10
163.2181240319064
 20
138.8679508177125
 10
163.2054711579135
 20
138.8891629186955
 10
163.1911469696814
 20
138.9096454588255
 10
163.1750751732644
 20
138.9290873018585
 10
163.1575895546724
 20
138.9467743841495
 10
163.1388188599404
 20
138.9625386205995
 10
163.1187773941815
 20
138.9763931242315
 10
163.0974818466954
 20
138.9883545843445
 10
163.0749465225994
 20
138.9984373060555
 10
163.0511857270054
 20
139.0066532102905
 10
163.0262161492164
 20
139.0130189863525
 10
163.0000497101594
 20
139.0175477472625
 10
162.9727030991374
 20
139.0202537981355
 10
162.9441906212624
 20
139.0211526361785
  0
LWPOLYLINE
  5
702
330
1F
100
AcDbEntity
  8
Sichtbare_Kanten_TC_020513_DIN_
  6
Continuous
 62
     7
100
AcDbPolyline
 90
       25
 70
     0
 43
0.0
 10
161.9965411423494
 20
139.0211526361785
 10
161.9487835167705
 20
139.0216914621675
 10
161.9004942177584
 20
139.0233115164125
 10
161.8517042397314
 20
139.0260175672855
 10
161.8024493454744
 20
139.0298143831575
 10
161.7527652977764
 20
139.0347043482155
 10
161.7026878594214
 20
139.0406934229225
 10
161.6522456406414
 20
139.0477851835575
 10
161.6014791725924
 20
139.0559843984925
 10
161.5504194496924
 20
139.0652946440065
 10
161.4991332291414
 20
139.0757159200995
 10
161.4488817452244
 20
139.0869978872625
 10
161.4003587960054
 20
139.0989116636595
 10
161.3536597489174
 20
139.1113213507025
 10
161.3088775872045
 20
139.1240934339845
 10
161.2661076782994
 20
139.1370932070105
 10
161.2254430054484
 20
139.1501859632815
 10
161.1869789360814
 20
139.1632381883945
 10
161.1508132218174
 20
139.1761139837585
 10
161.1170340775304
 20
139.1886798349705
 10
161.0857392548374
 20
139.2007998434395
 10
161.0570241211704
 20
139.2123416868535
 10
161.0309816597754
 20
139.2231694666235
 10
161.0077048538975
 20
139.2331496683445
 10
160.9872890709694
 20
139.2421475855195
  0
LWPOLYLINE
  5
703
330
1F
100
AcDbEntity
  8
Sichtbare_Kanten_TC_020513_DIN_
  6
Continuous
 62
     7
100
AcDbPolyline
 90
       25
 70
     0
 43
0.0
 10
31.83959972847043
 20
126.8693099228225
 10
31.85015690315339
 20
126.8924919573155
 10
31.86027538765046
 20
126.9158528057425
 10
31.86997425544843
 20
126.9393859115925
 10
31.87924396980344
 20
126.9630853144015
 10
31.88807499397336
 20
126.9869456497515
 10
31.8964673279574
 20
127.0109603611315
 10
31.90443050849939
 20
127.0351234880775
 10
31.91194546211347
 20
127.0594296661695
 10
31.9190217255404
 20
127.0838723388995
 10
31.92565929878339
 20
127.1084455458015
 10
31.93183910835336
 20
127.1331433264105
 10
31.93758022773847
 20
127.1579603163085
 10
31.94287312019441
 20
127.1828774420105
 10
31.94769871223542
 20
127.2078756300295
 10
31.95207607734739
 20
127.2329501119935
 10
31.95598614204442
 20
127.2580931392995
 10
31.95944797981343
 20
127.2832993475285
 10
31.96244251716638
 20
127.3085621801695
 10
31.96498882759141
 20
127.3338750807135
 10
31.96706783760141
 20
127.3592320886935
 10
31.96868908393941
 20
127.3846272436465
 10
31.96984302986238
 20
127.4100533930145
 10
31.97053921211347
 20
127.4355051723805
 10
31.9707680939494
 20
127.4609754291855
  0
LWPOLYLINE
  5
704
330
1F
100
AcDbEntity
  8
Sichtbare_Kanten_TC_020513_DIN_
  6
Continuous
 62
     7
100
AcDbPolyline
 90
       25
 70
     0
 43
0.0
 10
33.37077152717637
 20
127.4609754291855
 10
33.37030422676145
 20
127.4100343195285
 10
33.36891186225938
 20
127.3591313568435
 10
33.36660397041345
 20
127.3082784620605
 10
33.36336147773847
 20
127.2574887482015
 10
33.35920345771837
 20
127.2067747322405
 10
33.35412991035543
 20
127.1561483351075
 10
33.34813129890546
 20
127.1056226698245
 10
33.34120762336846
 20
127.0552108494125
 10
33.33337795723043
 20
127.0049241987555
 10
33.32463276374841
 20
126.9547758308735
 10
33.31497204292344
 20
126.9047788587895
 10
33.30439579475438
 20
126.8549446073855
 10
33.29292309272836
 20
126.8053112236345
 10
33.28054440010141
 20
126.7559156624165
 10
33.26727879036042
 20
126.7067692486135
 10
33.25312626350438
 20
126.6578839031545
 10
33.23808681953545
 20
126.6092718449915
 10
33.22216999519441
 20
126.5609452930775
 10
33.20537579048238
 20
126.5129155722945
 10
33.18771374214242
 20
126.4651951996175
 10
33.16918385017442
 20
126.4177960959755
 10
33.14979565132245
 20
126.3707298842755
 10
33.12953960884141
 20
126.3240087834685
 10
33.10842525947641
 20
126.2776444164595
  0
LWPOLYLINE
  5
705
330
1F
100
AcDbEntity
  8
Sichtbare_Kanten_TC_020513_DIN_
  6
Continuous
 62
     7
100
AcDbPolyline
 90
       25
 70
     0
 43
0.0
 10
31.8883610962684
 20
137.9110137430515
 10
31.86242115486238
 20
137.9778210131015
 10
31.83315289009141
 20
138.0430845228515
 10
31.80064213264546
 20
138.1066838709205
 10
31.76494610298238
 20
138.1684998480165
 10
31.7261506317904
 20
138.2284132448515
 10
31.68433201301644
 20
138.2863048521365
 10
31.6395570038614
 20
138.3420554605805
 10
31.59190189827046
 20
138.3955446688025
 10
31.54152882087743
 20
138.4465626684515
 10
31.48872387397836
 20
138.4948400465335
 10
31.43360149849042
 20
138.5402921644535
 10
31.3762856720744
 20
138.5828403440795
 10
31.31688129890546
 20
138.6224047151885
 10
31.25551235664437
 20
138.6589077917425
 10
31.19228374946641
 20
138.6922685114235
 10
31.12731945503339
 20
138.7224093881935
 10
31.06081020820642
 20
138.7492219415985
 10
30.99313747871446
 20
138.7725559679355
 10
30.92446339119039
 20
138.7923745123235
 10
30.85491192329442
 20
138.8086513487185
 10
30.7846261261754
 20
138.8213590589845
 10
30.71374905098043
 20
138.8304690328925
 10
30.6424237488564
 20
138.8359550443975
 10
30.57076466072141
 20
138.8377896753635
  0
LWPOLYLINE
  5
706
330
1F
100
AcDbEntity
  8
Sichtbare_Kanten_TC_020513_DIN_
  6
Continuous
 62
     7
100
AcDbPolyline
 90
       25
 70
     0
 43
0.0
 10
30.57076466072141
 20
140.2377895323125
 10
30.68409931648336
 20
140.2354959455815
 10
30.79706203926145
 20
140.2286306825965
 10
30.90951931465241
 20
140.2172223535865
 10
31.02134716499342
 20
140.2012983766875
 10
31.13239300239644
 20
140.1808849779455
 10
31.24253284919843
 20
140.1560107675875
 10
31.35163319099439
 20
140.1267031637515
 10
31.45954143989644
 20
140.0929883924805
 10
31.56614315498445
 20
140.0548938719115
 10
31.67127621162439
 20
140.0124505964605
 10
31.77454960334836
 20
139.9658147302955
 10
31.87569630134641
 20
139.9151174036345
 10
31.97461140144441
 20
139.8604372946105
 10
32.07117092598043
 20
139.8018518892615
 10
32.16526043403638
 20
139.7394386736235
 10
32.25676548469636
 20
139.6732763258305
 10
32.34558117378339
 20
139.6034423319185
 10
32.4315739868934
 20
139.5300129858335
 10
32.51463901985238
 20
139.4530693498935
 10
32.59465229499841
 20
139.3727020231565
 10
32.67131817329442
 20
139.2891875711765
 10
32.74451267707838
 20
139.2026845423065
 10
32.81413090217637
 20
139.1133038011875
 10
32.88008701789937
 20
139.0211526361785
  0
LWPOLYLINE
  5
707
330
1F
100
AcDbEntity
  8
Sichtbare_Kanten_TC_020513_DIN_
  6
Continuous
 62
     7
100
AcDbPolyline
 90
       25
 70
     0
 43
0.0
 10
31.9707680939494
 20
137.4377898184145
 10
31.9707680939494
 20
137.4471763578735
 10
31.97071087349042
 20
137.4581126180975
 10
31.97055828559945
 20
137.4705878702485
 10
31.97023403633142
 20
137.4845937696775
 10
31.96968090522836
 20
137.5001195875495
 10
31.96884167182935
 20
137.5171557871185
 10
31.9676686524204
 20
137.5356916395515
 10
31.96608555305539
 20
137.5557164160095
 10
31.96403515327546
 20
137.5772229639375
 10
31.96146976936444
 20
137.6001993624055
 10
31.95832264411939
 20
137.6246360746705
 10
31.95452702034044
 20
137.6505235639895
 10
31.95004475105344
 20
137.6777700392095
 10
31.94503796089242
 20
137.7048126665435
 10
31.93964970100438
 20
137.7309814897865
 10
31.93395626533544
 20
137.7561811415045
 10
31.92807209480344
 20
137.7803102938025
 10
31.92205440986646
 20
137.8032711950625
 10
31.91600811470136
 20
137.8249672857605
 10
31.91001903999342
 20
137.8452984300935
 10
31.90417301643441
 20
137.8641668764435
 10
31.89855587471044
 20
137.8814748731935
 10
31.89325344551145
 20
137.8971222845405
 10
31.8883610962684
 20
137.9110137430515
  0
LWPOLYLINE
  5
708
330
1F
100
AcDbEntity
  8
Sichtbare_Kanten_TC_020513_DIN_
  6
Continuous
 62
     7
100
AcDbPolyline
 90
       25
 70
     0
 43
0.0
 10
32.3306180237584
 20
139.0211526361785
 10
32.30501186836347
 20
139.0204290357915
 10
32.28032124031137
 20
139.0182510820715
 10
32.25658428657636
 20
139.0146080461825
 10
32.23379147041345
 20
139.0094915834755
 10
32.21197140205442
 20
139.0028897730195
 10
32.19112408149744
 20
138.9947954622595
 10
32.17126858223043
 20
138.9851979223575
 10
32.15241444099439
 20
138.9740864244785
 10
32.13458073127839
 20
138.9614526239715
 10
32.11777698982343
 20
138.9472869840945
 10
32.10201275337244
 20
138.9315763918245
 10
32.08727848518441
 20
138.9142981973975
 10
32.07355511177144
 20
138.8954261747685
 10
32.0608426331334
 20
138.8749352899875
 10
32.04913151252839
 20
138.8528040853825
 10
32.03839313972543
 20
138.8290063349095
 10
32.0289231537634
 20
138.8044361082405
 10
32.02087414253339
 20
138.7802056280455
 10
32.01414120185945
 20
138.7567070928895
 10
32.00857174385141
 20
138.7343338934265
 10
32.00403225410543
 20
138.7134794203125
 10
32.0004082917024
 20
138.6945334879245
 10
31.99755680549646
 20
138.6778894869175
 10
31.9953442810824
 20
138.6639408079475
  0
LWPOLYLINE
  5
709
330
1F
100
AcDbEntity
  8
Sichtbare_Kanten_TC_020513_DIN_
  6
Continuous
 62
     7
100
AcDbPolyline
 90
       25
 70
     0
 43
0.0
 10
31.9953442810824
 20
138.6639408079475
 10
31.9933415650184
 20
138.6506656614625
 10
31.99142467964242
 20
138.6373905149785
 10
31.98959362495435
 20
138.6241165605865
 10
31.98784840095544
 20
138.6108426061955
 10
31.98617947090241
 20
138.5975698438965
 10
31.98460590828046
 20
138.5842958895055
 10
31.98310863960336
 20
138.5710219351135
 10
31.98169720161542
 20
138.5577491728155
 10
31.98038113105844
 20
138.5444752184235
 10
31.97914135444745
 20
138.5312012640325
 10
31.97798740852437
 20
138.5179261175475
 10
31.97691929328943
 20
138.5046509710635
 10
31.97593700874342
 20
138.4913770166725
 10
31.97504055488645
 20
138.4781018701875
 10
31.97422993171739
 20
138.4648279157965
 10
31.97350513923738
 20
138.4515539614045
 10
31.97286617744538
 20
138.4382811991065
 10
31.97230350959836
 20
138.4250072447145
 10
31.97183620918344
 20
138.4117332903235
 10
31.97145473945642
 20
138.3984605280245
 10
31.9711495636754
 20
138.3851865736335
 10
31.97093975532636
 20
138.3719126192415
 10
31.97080624092138
 20
138.3586374727575
 10
31.9707680939494
 20
138.3453623262725
  0
LWPOLYLINE
  5
70A
330
1F
100
AcDbEntity
  8
Sichtbare_Kanten_TC_020513_DIN_
  6
Continuous
 62
     7
100
AcDbPolyline
 90
       25
 70
     0
 43
0.0
 10
34.77076542366041
 20
139.4564084020935
 10
34.75052845466638
 20
139.4474808183995
 10
34.73029148567235
 20
139.4385520426125
 10
34.71006405342138
 20
139.4296244589175
 10
34.68982708442746
 20
139.4206968752235
 10
34.66960918891942
 20
139.4117704836215
 10
34.64939129341138
 20
139.4028440920195
 10
34.62917339790437
 20
139.3939165083255
 10
34.60896503913938
 20
139.3849901167235
 10
34.58876621711846
 20
139.3760625330295
 10
34.5685864685824
 20
139.3671349493355
 10
34.54840672004735
 20
139.3582061735475
 10
34.52823650825536
 20
139.3492785898535
 10
34.50807583320642
 20
139.3403498140655
 10
34.48793423164437
 20
139.3314210382785
 10
34.46781170356843
 20
139.3224934545835
 10
34.44769871223542
 20
139.3135670629825
 10
34.4276047943884
 20
139.3046394792885
 10
34.40753948677144
 20
139.2957130876865
 10
34.38748371589742
 20
139.2867855039925
 10
34.36744701850938
 20
139.2778591123905
 10
34.34742939460836
 20
139.2689315286955
 10
34.32744038093637
 20
139.2600039450015
 10
34.30747044075037
 20
139.2510763613065
 10
34.28751957405137
 20
139.2421475855195
  0
LWPOLYLINE
  5
70B
330
1F
100
AcDbEntity
  8
Sichtbare_Kanten_TC_020513_DIN_
  6
Continuous
 62
     7
100
AcDbPolyline
 90
       25
 70
     0
 43
0.0
 10
34.28751957405137
 20
139.2421475855195
 10
34.26703464973542
 20
139.2331174818365
 10
34.24367916572641
 20
139.2231039015145
 10
34.21754848945642
 20
139.2122403589575
 10
34.18873798835836
 20
139.2006651369415
 10
34.15734302986238
 20
139.1885093656865
 10
34.1234685181434
 20
139.1759125200595
 10
34.08719074714742
 20
139.1630057302795
 10
34.04861462104844
 20
139.1499272791235
 10
34.00783550727937
 20
139.1368118730865
 10
33.96494877327046
 20
139.1237930265745
 10
33.92004978645338
 20
139.1110078302705
 10
33.8732243775184
 20
139.0985897985785
 10
33.8245774506384
 20
139.0866760221805
 10
33.77420437324537
 20
139.0754012075745
 10
33.72304928291345
 20
139.0650347677555
 10
33.67214214790437
 20
139.0557781664215
 10
33.6215401886754
 20
139.0476278272955
 10
33.57125294197141
 20
139.0405765978185
 10
33.52132809150743
 20
139.0346232858985
 10
33.4717942475134
 20
139.0297619310705
 10
33.42268002021837
 20
139.0259889570555
 10
33.37404263008142
 20
139.0232995954835
 10
33.32589161384641
 20
139.0216890779815
 10
33.27826511848542
 20
139.0211526361785
  0
LWPOLYLINE
  5
70C
330
1F
100
AcDbEntity
  8
Sichtbare_Kanten_TC_020513_DIN_
  6
Continuous
 62
     7
100
AcDbPolyline
 90
       25
 70
     0
 43
0.0
 10
253.1067537884794
 20
126.8693099228225
 10
253.1165814023094
 20
126.8924919573155
 10
253.1264054398613
 20
126.9158528057425
 10
253.1362270932274
 20
126.9393859115925
 10
253.1460451703154
 20
126.9630853144015
 10
253.1558620553093
 20
126.9869456497515
 10
253.1656789403044
 20
127.0109603611315
 10
253.1754946332054
 20
127.0351234880775
 10
253.1853115182004
 20
127.0594296661695
 10
253.1951295952874
 20
127.0838723388995
 10
253.2049512486533
 20
127.1084455458015
 10
253.2147752862053
 20
127.1331433264105
 10
253.2246040921294
 20
127.1579603163085
 10
253.2344317059594
 20
127.1828774420105
 10
253.2442557435114
 20
127.2078756300295
 10
253.2540773968773
 20
127.2329501119935
 10
253.2638954739654
 20
127.2580931392995
 10
253.2737123589594
 20
127.2832993475285
 10
253.2835292439544
 20
127.3085621801695
 10
253.2933449368554
 20
127.3338750807135
 10
253.3031618218503
 20
127.3592320886935
 10
253.3129798989374
 20
127.3846272436465
 10
253.3228015523034
 20
127.4100533930145
 10
253.3326255898554
 20
127.4355051723805
 10
253.3424532036864
 20
127.4609754291855
  0
LWPOLYLINE
  5
70D
330
1F
100
AcDbEntity
  8
Sichtbare_Kanten_TC_020513_DIN_
  6
Continuous
 62
     7
100
AcDbPolyline
 90
       25
 70
     0
 43
0.0
 10
253.3424532036864
 20
127.4609754291855
 10
253.3326255898564
 20
127.4100343195285
 10
253.3228015523044
 20
127.3591313568435
 10
253.3129798989384
 20
127.3082784620605
 10
253.3031618218503
 20
127.2574887482015
 10
253.2933449368564
 20
127.2067747322405
 10
253.2835292439544
 20
127.1561483351075
 10
253.2737123589604
 20
127.1056226698245
 10
253.2638954739654
 20
127.0552108494125
 10
253.2540773968784
 20
127.0049241987555
 10
253.2442557435124
 20
126.9547758308735
 10
253.2344317059604
 20
126.9047788587895
 10
253.2246040921294
 20
126.8549446073855
 10
253.2147752862064
 20
126.8053112236345
 10
253.2049512486544
 20
126.7559156624165
 10
253.1951295952884
 20
126.7067692486135
 10
253.1853115182004
 20
126.6578839031545
 10
253.1754946332064
 20
126.6092718449915
 10
253.1656789403044
 20
126.5609452930775
 10
253.1558620553104
 20
126.5129155722945
 10
253.1460451703154
 20
126.4651951996175
 10
253.1362270932283
 20
126.4177960959755
 10
253.1264054398624
 20
126.3707298842755
 10
253.1165814023104
 20
126.3240087834685
 10
253.1067537884794
 20
126.2776444164595
  0
LWPOLYLINE
  5
70E
330
1F
100
AcDbEntity
  8
Sichtbare_Kanten_TC_020513_DIN_
  6
Continuous
 62
     7
100
AcDbPolyline
 90
       25
 70
     0
 43
0.0
 10
259.7921681027494
 20
139.0211526361785
 10
259.7456001858794
 20
139.0204290357915
 10
259.6985959630094
 20
139.0182510820715
 10
259.6512174229704
 20
139.0146080461825
 10
259.6035265545924
 20
139.0094915834755
 10
259.5555853467074
 20
139.0028897730195
 10
259.5074581723293
 20
138.9947954622595
 10
259.4592022519194
 20
138.9851979223575
 10
259.4108819584923
 20
138.9740864244785
 10
259.3625592808804
 20
138.9614526239715
 10
259.3142962079134
 20
138.9472869840945
 10
259.2661571126064
 20
138.9315763918245
 10
259.2182349782074
 20
138.9142981973975
 10
259.1706299405184
 20
138.8954261747685
 10
259.1234325985994
 20
138.8749352899875
 10
259.0767359356964
 20
138.8528040853825
 10
259.0306377034264
 20
138.8290063349095
 10
258.9868425946314
 20
138.8044361082405
 10
258.9469098668184
 20
138.7802056280455
 10
258.9108466725434
 20
138.7567070928895
 10
258.8786744694793
 20
138.7343338934265
 10
258.8504051785554
 20
138.7134794203125
 10
258.8260507206994
 20
138.6945334879245
 10
258.8056325535853
 20
138.6778894869175
 10
258.7891602139554
 20
138.6639408079475
  0
LWPOLYLINE
  5
70F
330
1F
100
AcDbEntity
  8
Sichtbare_Kanten_TC_020513_DIN_
  6
Continuous
 62
     7
100
AcDbPolyline
 90
       25
 70
     0
 43
0.0
 10
258.6040663342564
 20
138.6639408079475
 10
258.6112951855744
 20
138.6762193647705
 10
258.6199164013944
 20
138.6903659311615
 10
258.6299323659023
 20
138.7061563936555
 10
258.6413430790984
 20
138.7233690229735
 10
258.6541485409824
 20
138.7417785135595
 10
258.6683535199254
 20
138.7611607519475
 10
258.6839556317414
 20
138.7812940088595
 10
258.7009572606174
 20
138.8019529787385
 10
258.7193607907383
 20
138.8229135481205
 10
258.7391662221044
 20
138.8439539877265
 10
258.7603735547154
 20
138.8648501840915
 10
258.7829851727574
 20
138.8853768316595
 10
258.8069796185584
 20
138.9052943197575
 10
258.8318633656584
 20
138.9240662065825
 10
258.8574170689664
 20
138.9414624182075
 10
258.8836025815094
 20
138.9573971239415
 10
258.9103746037574
 20
138.9717809168185
 10
258.9376902203644
 20
138.9845267740575
 10
258.9654850583164
 20
138.9955381361335
 10
258.9934706311314
 20
139.0046552625975
 10
259.0215324978914
 20
139.0118149725285
 10
259.0496086697664
 20
139.0169779268585
 10
259.0776419262974
 20
139.0201035944305
 10
259.1055702786534
 20
139.0211526361785
  0
LWPOLYLINE
  5
710
330
1F
100
AcDbEntity
  8
Sichtbare_Kanten_TC_020513_DIN_
  6
Continuous
 62
     7
100
AcDbPolyline
 90
       25
 70
     0
 43
0.0
 10
258.7891602139554
 20
138.6639408079475
 10
258.7738179783904
 20
138.6506656614625
 10
258.7584685902673
 20
138.6373905149785
 10
258.7431072812164
 20
138.6241165605865
 10
258.7277364354214
 20
138.6108426061955
 10
258.7123560528834
 20
138.5975698438965
 10
258.6969685177884
 20
138.5842958895055
 10
258.6815714459504
 20
138.5710219351135
 10
258.6661672215544
 20
138.5577491728155
 10
258.6507534604154
 20
138.5444752184235
 10
258.6353349309044
 20
138.5312012640325
 10
258.6199068646513
 20
138.5179261175475
 10
258.6044716458404
 20
138.5046509710635
 10
258.5890340428434
 20
138.4913770166725
 10
258.5735892872894
 20
138.4781018701875
 10
258.5581397633634
 20
138.4648279157965
 10
258.5426878552514
 20
138.4515539614045
 10
258.5272311787684
 20
138.4382811991065
 10
258.5117721180994
 20
138.4250072447145
 10
258.4963106732454
 20
138.4117332903235
 10
258.4808468442043
 20
138.3984605280245
 10
258.4653806309784
 20
138.3851865736335
 10
258.4499120335664
 20
138.3719126192415
 10
258.4344410519684
 20
138.3586374727575
 10
258.4189700703703
 20
138.3453623262725
  0
LWPOLYLINE
  5
711
330
1F
100
AcDbEntity
  8
Sichtbare_Kanten_TC_020513_DIN_
  6
Continuous
 62
     7
100
AcDbPolyline
 90
       25
 70
     0
 43
0.0
 10
258.4189700703703
 20
138.3453623262725
 10
258.4267067532624
 20
138.3586374727575
 10
258.4344410519684
 20
138.3719126192415
 10
258.4421753506744
 20
138.3851865736335
 10
258.4499096493803
 20
138.3984605280245
 10
258.4576415639014
 20
138.4117332903235
 10
258.4653710942354
 20
138.4250072447145
 10
258.4731006245693
 20
138.4382811991065
 10
258.4808301549044
 20
138.4515539614045
 10
258.4885549168674
 20
138.4648279157965
 10
258.4962796788304
 20
138.4781018701875
 10
258.5040020566074
 20
138.4913770166725
 10
258.5117220501983
 20
138.5046509710635
 10
258.5194396596044
 20
138.5179261175475
 10
258.5271525006384
 20
138.5312012640325
 10
258.5348629574864
 20
138.5444752184235
 10
258.5425686459624
 20
138.5577491728155
 10
258.5502719502534
 20
138.5710219351135
 10
258.5579704861723
 20
138.5842958895055
 10
258.5656642537204
 20
138.5975698438965
 10
258.5733532528964
 20
138.6108426061955
 10
258.5810398678864
 20
138.6241165605865
 10
258.5887193303194
 20
138.6373905149785
 10
258.5963940243803
 20
138.6506656614625
 10
258.6040663342564
 20
138.6639408079475
  0
LWPOLYLINE
  5
712
330
1F
100
AcDbEntity
  8
Sichtbare_Kanten_TC_020513_DIN_
  6
Continuous
 62
     7
100
AcDbPolyline
 90
       25
 70
     0
 43
0.0
 10
261.2189721684544
 20
139.4564084020935
 10
261.2188982586953
 20
139.4474808183995
 10
261.2186789136023
 20
139.4385520426125
 10
261.2183117489904
 20
139.4296244589175
 10
261.2178015332314
 20
139.4206968752235
 10
261.2171434979524
 20
139.4117704836215
 10
261.2163376431553
 20
139.4028440920195
 10
261.2153887372104
 20
139.3939165083255
 10
261.2142920117464
 20
139.3849901167235
 10
261.2130498509494
 20
139.3760625330295
 10
261.2116622548194
 20
139.3671349493355
 10
261.2101268391694
 20
139.3582061735475
 10
261.2084459881874
 20
139.3492785898535
 10
261.2066220860574
 20
139.3403498140655
 10
261.2046503644074
 20
139.3314210382785
 10
261.2025332074254
 20
139.3224934545835
 10
261.2002706151093
 20
139.3135670629825
 10
261.1978625874604
 20
139.3046394792885
 10
261.1953115086644
 20
139.2957130876865
 10
261.1926126103494
 20
139.2867855039925
 10
261.1897706608864
 20
139.2778591123905
 10
261.1867832760904
 20
139.2689315286955
 10
261.1836528401464
 20
139.2600039450015
 10
261.1803745846834
 20
139.2510763613065
 10
261.1769532780734
 20
139.2421475855195
  0
LWPOLYLINE
  5
713
330
1F
100
AcDbEntity
  8
Sichtbare_Kanten_TC_020513_DIN_
  6
Continuous
 62
     7
100
AcDbPolyline
 90
       25
 70
     0
 43
0.0
 10
259.7979616742223
 20
139.2421475855195
 10
259.7996735196204
 20
139.2510763613065
 10
259.8013114552584
 20
139.2600039450015
 10
259.8028778653234
 20
139.2689315286955
 10
259.8043703656284
 20
139.2778591123905
 10
259.8057913403604
 20
139.2867855039925
 10
259.8071407895174
 20
139.2957130876865
 10
259.8084163289164
 20
139.3046394792885
 10
259.8096203427404
 20
139.3135670629825
 10
259.8107528309914
 20
139.3224934545835
 10
259.8118114094824
 20
139.3314210382785
 10
259.8127960782144
 20
139.3403498140655
 10
259.8137092213723
 20
139.3492785898535
 10
259.8145484547704
 20
139.3582061735475
 10
259.8153161625954
 20
139.3671349493355
 10
259.8160099606603
 20
139.3760625330295
 10
259.8166322331513
 20
139.3849901167235
 10
259.8171805958834
 20
139.3939165083255
 10
259.8176550488564
 20
139.4028440920195
 10
259.8180579762544
 20
139.4117704836215
 10
259.8183869938944
 20
139.4206968752235
 10
259.8186421017734
 20
139.4296244589175
 10
259.8188256840794
 20
139.4385520426125
 10
259.8189353566264
 20
139.4474808183995
 10
259.8189711194124
 20
139.4564084020935
  0
LWPOLYLINE
  5
714
330
1F
100
AcDbEntity
  8
Sichtbare_Kanten_TC_020513_DIN_
  6
Continuous
 62
     7
100
AcDbPolyline
 90
       25
 70
     0
 43
0.0
 10
261.1769532780734
 20
139.2421475855195
 10
261.1733150105563
 20
139.2331174818365
 10
261.1690044026464
 20
139.2231039015145
 10
261.1639451603974
 20
139.2122403589575
 10
261.1580562214944
 20
139.2006651369415
 10
261.1512541394324
 20
139.1885093656865
 10
261.1434578518953
 20
139.1759125200595
 10
261.1345886807533
 20
139.1630057302795
 10
261.1245655636873
 20
139.1499272791235
 10
261.1133050541964
 20
139.1368118730865
 10
261.1007260899634
 20
139.1237930265745
 10
261.0867499928564
 20
139.1110078302705
 10
261.0712957005584
 20
139.0985897985785
 10
261.0542797665684
 20
139.0866760221805
 10
261.0356211285674
 20
139.0754012075745
 10
261.0155558209504
 20
139.0650347677555
 10
260.9944223980994
 20
139.0557781664215
 10
260.9722280125704
 20
139.0476278272955
 10
260.9489845852934
 20
139.0405765978185
 10
260.9246992688264
 20
139.0346232858985
 10
260.8993863682834
 20
139.0297619310705
 10
260.8730530362214
 20
139.0259889570555
 10
260.8457088093844
 20
139.0232995954835
 10
260.8173656087004
 20
139.0216890779815
 10
260.7880305867283
 20
139.0211526361785
  0
LWPOLYLINE
  5
715
330
1F
100
AcDbEntity
  8
Sichtbare_Kanten_TC_020513_DIN_
  6
Continuous
 62
     7
100
AcDbPolyline
 90
       25
 70
     0
 43
0.0
 10
259.6035003285494
 20
139.0211526361785
 10
259.6177672963234
 20
139.0216616598455
 10
259.6315145115944
 20
139.0231827703795
 10
259.6447419743624
 20
139.0257052389465
 10
259.6574496846284
 20
139.0292171446175
 10
259.6696352582064
 20
139.0337101427405
 10
259.6813010792824
 20
139.0391735044805
 10
259.6924471478554
 20
139.0455941168155
 10
259.7030734639254
 20
139.0529648271885
 10
259.7131776433074
 20
139.0612725225775
 10
259.7227501492584
 20
139.0704957453095
 10
259.7317599873634
 20
139.0805796591125
 10
259.7402214627354
 20
139.0914968458495
 10
259.7481464963044
 20
139.1032234636635
 10
259.7555493931854
 20
139.1157392469725
 10
259.7624444584934
 20
139.1290191618285
 10
259.7688126187414
 20
139.1429475752205
 10
259.7744869809243
 20
139.1569844690645
 10
259.7794913868993
 20
139.1708973852485
 10
259.7838687520114
 20
139.1845146623935
 10
259.7876643757914
 20
139.1976646391235
 10
259.7909259419534
 20
139.2101756540625
 10
259.7937011342133
 20
139.2218748537385
 10
259.7960304837314
 20
139.2325893846835
 10
259.7979616742223
 20
139.2421475855195
  0
LWPOLYLINE
  5
716
330
1F
100
AcDbEntity
  8
Sichtbare_Kanten_TC_020513_DIN_
  6
Continuous
 62
     7
100
AcDbPolyline
 90
       25
 70
     0
 43
0.0
 10
252.5034451108064
 20
137.9110137430515
 10
252.4757885556303
 20
137.9778210131015
 10
252.4481880288204
 20
138.0430845228515
 10
252.4206232647974
 20
138.1066838709205
 10
252.3930799584464
 20
138.1684998480165
 10
252.3655366520964
 20
138.2284132448515
 10
252.3379778485374
 20
138.2863048521365
 10
252.3103844742854
 20
138.3420554605805
 10
252.2827386479453
 20
138.3955446688025
 10
252.2550725560264
 20
138.4465626684515
 10
252.2274636845664
 20
138.4948400465335
 10
252.1998941521724
 20
138.5402921644535
 10
252.1723484616354
 20
138.5828403440795
 10
252.1448063473784
 20
138.6224047151885
 10
252.1172511200984
 20
138.6589077917425
 10
252.0896648984033
 20
138.6922685114235
 10
252.0620298008993
 20
138.7224093881935
 10
252.0343577485164
 20
138.7492219415985
 10
252.0067345719414
 20
138.7725559679355
 10
251.9791495423394
 20
138.7923745123235
 10
251.9515859704093
 20
138.8086513487185
 10
251.9240259747584
 20
138.8213590589845
 10
251.8964504818994
 20
138.8304690328925
 10
251.8688428025324
 20
138.8359550443975
 10
251.8411838631703
 20
138.8377896753635
  0
LWPOLYLINE
  5
717
330
1F
100
AcDbEntity
  8
Sichtbare_Kanten_TC_020513_DIN_
  6
Continuous
 62
     7
100
AcDbPolyline
 90
       25
 70
     0
 43
0.0
 10
251.8411838631703
 20
140.2377895323125
 10
251.8688141923024
 20
140.2341274229375
 10
251.8963932614404
 20
140.2231792417845
 10
251.9239377598844
 20
140.2049974409425
 10
251.9514667611203
 20
140.1796392408695
 10
251.9789981465423
 20
140.1471594778385
 10
252.0065486054504
 20
140.1076117960295
 10
252.0341372113304
 20
140.0610546079955
 10
252.0617782692984
 20
140.0075475183805
 10
252.0893954854094
 20
139.9473682848295
 10
252.1169650178034
 20
139.8807517496435
 10
252.1445047478754
 20
139.8078540769905
 10
252.1720325570183
 20
139.7288326231325
 10
252.1995663266263
 20
139.6438423601475
 10
252.2271239380924
 20
139.5530430284825
 10
252.2547244649014
 20
139.4565896002135
 10
252.2823726754273
 20
139.3546823469485
 10
252.3100077729304
 20
139.2478100267735
 10
252.3376297574123
 20
139.1362503973335
 10
252.3652588944523
 20
139.0202239958135
 10
252.3929094891634
 20
138.8999608961425
 10
252.4205493550384
 20
138.7759188619935
 10
252.4481737237064
 20
138.6484483686775
 10
252.4757992844664
 20
138.5178033319795
 10
252.5034451108064
 20
138.3842364755955
  0
LWPOLYLINE
  5
718
330
1F
100
AcDbEntity
  8
Sichtbare_Kanten_TC_020513_DIN_
  6
Continuous
 62
     7
100
AcDbPolyline
 90
       25
 70
     0
 43
0.0
 10
252.9148733239254
 20
137.4377898184145
 10
252.9009663682064
 20
137.4471763578735
 10
252.8852069001273
 20
137.4581126180975
 10
252.8677892308314
 20
137.4705878702485
 10
252.8489076714594
 20
137.4845937696775
 10
252.8287577252474
 20
137.5001195875495
 10
252.8075348954284
 20
137.5171557871185
 10
252.7854323010524
 20
137.5356916395515
 10
252.7626466374474
 20
137.5557164160095
 10
252.7393722157564
 20
137.5772229639375
 10
252.7158045392114
 20
137.6001993624055
 10
252.6921391110504
 20
137.6246360746705
 10
252.6685690503204
 20
137.6505235639895
 10
252.6453542332734
 20
137.6777700392095
 10
252.6238107304654
 20
137.7048126665435
 10
252.6043116669734
 20
137.7309814897865
 10
252.5867533307153
 20
137.7561811415045
 10
252.5710296254244
 20
137.7803102938025
 10
252.5570332627374
 20
137.8032711950625
 10
252.5446605305754
 20
137.8249672857605
 10
252.5338053326684
 20
137.8452984300935
 10
252.5243615727504
 20
137.8641668764435
 10
252.5162243466454
 20
137.8814748731935
 10
252.5092875580874
 20
137.8971222845405
 10
252.5034451108064
 20
137.9110137430515
  0
LWPOLYLINE
  5
719
330
1F
100
AcDbEntity
  8
Sichtbare_Kanten_TC_020513_DIN_
  6
Continuous
 62
     7
100
AcDbPolyline
 90
       25
 70
     0
 43
0.0
 10
252.5034451108064
 20
138.3842364755955
 10
252.5203513722503
 20
138.3075646368355
 10
252.5384544949614
 20
138.2353202310885
 10
252.5574385743224
 20
138.1675235239355
 10
252.5769841294373
 20
138.1041912046755
 10
252.5967776398744
 20
138.0453447309815
 10
252.6164996247374
 20
137.9910043684325
 10
252.6358341794103
 20
137.9411879984225
 10
252.6544808964814
 20
137.8958801237435
 10
252.6730024437994
 20
137.8532997576085
 10
252.6917337994664
 20
137.8124550787295
 10
252.7105664830294
 20
137.7733746973365
 10
252.7293908219423
 20
137.7360836473785
 10
252.7480971436584
 20
137.7006093469945
 10
252.7665757756313
 20
137.6669768301335
 10
252.7847194295014
 20
137.6352123228395
 10
252.8024172406284
 20
137.6053444353425
 10
252.8195619206513
 20
137.5773970095005
 10
252.8360414128394
 20
137.5513986555425
 10
252.8517496209234
 20
137.5273744074195
 10
252.8665744881714
 20
137.5053504911745
 10
252.8804087262234
 20
137.4853531328525
 10
252.8931426625334
 20
137.4674109426825
 10
252.9046666245544
 20
137.4515465704285
 10
252.9148733239254
 20
137.4377898184145
  0
LWPOLYLINE
  5
71A
330
1F
100
AcDbEntity
  8
Sichtbare_Kanten_TC_020513_DIN_
  6
Continuous
 62
     7
100
AcDbPolyline
 90
       25
 70
     0
 43
0.0
 10
221.9230687241644
 20
137.4377898184145
 10
221.9332754235354
 20
137.4515465704285
 10
221.9447993855563
 20
137.4674109426825
 10
221.9575333218664
 20
137.4853531328525
 10
221.9713675599184
 20
137.5053504911745
 10
221.9861924271664
 20
137.5273744074195
 10
222.0019006352514
 20
137.5513986555425
 10
222.0183801274384
 20
137.5773970095005
 10
222.0355248074614
 20
137.6053444353425
 10
222.0532226185883
 20
137.6352123228395
 10
222.0713662724584
 20
137.6669768301335
 10
222.0898449044314
 20
137.7006093469945
 10
222.1085512261474
 20
137.7360836473785
 10
222.1273755650604
 20
137.7733746973365
 10
222.1462082486234
 20
137.8124550787295
 10
222.1649396042914
 20
137.8532997576085
 10
222.1834611516084
 20
137.8958801237435
 10
222.2021078686794
 20
137.9411879984225
 10
222.2214424233524
 20
137.9910043684325
 10
222.2411644082154
 20
138.0453447309815
 10
222.2609579186524
 20
138.1041912046755
 10
222.2805034737674
 20
138.1675235239355
 10
222.2994875531284
 20
138.2353214231815
 10
222.3175906758394
 20
138.3075646368355
 10
222.3344969372834
 20
138.3842364755955
  0
LWPOLYLINE
  5
71B
330
1F
100
AcDbEntity
  8
Sichtbare_Kanten_TC_020513_DIN_
  6
Continuous
 62
     7
100
AcDbPolyline
 90
       25
 70
     0
 43
0.0
 10
222.3344969372834
 20
138.3842364755955
 10
222.3621272664154
 20
138.5177270380345
 10
222.3897063355534
 20
138.6481515375465
 10
222.4172508339964
 20
138.7752703634585
 10
222.4447798352324
 20
138.8988439050995
 10
222.4723112206544
 20
139.0186313597045
 10
222.4998616795623
 20
139.1343955007875
 10
222.5274502854434
 20
139.2458943334905
 10
222.5550913434113
 20
139.3528751341185
 10
222.5827085595213
 20
139.4547561613405
 10
222.6102768998224
 20
139.5512060133305
 10
222.6378166298944
 20
139.6420589891755
 10
222.6653456311304
 20
139.7271493879645
 10
222.6928794007384
 20
139.8063115087835
 10
222.7204370122034
 20
139.8793820349065
 10
222.7480375390134
 20
139.9461952654205
 10
222.7756857495384
 20
140.0065616575565
 10
222.8033208470424
 20
140.0601748434395
 10
222.8309428315244
 20
140.1069084612215
 10
222.8585719685634
 20
140.1466719118445
 10
222.8862225632744
 20
140.1793745962465
 10
222.9138624291493
 20
140.2048853842105
 10
222.9414856057244
 20
140.2231458631835
 10
222.9691123585774
 20
140.2341238466585
 10
222.9967581849174
 20
140.2377895323125
  0
LWPOLYLINE
  5
71C
330
1F
100
AcDbEntity
  8
Sichtbare_Kanten_TC_020513_DIN_
  6
Continuous
 62
     7
100
AcDbPolyline
 90
       25
 70
     0
 43
0.0
 10
222.3344969372834
 20
137.9110137430515
 10
222.3286544900024
 20
137.8971222845405
 10
222.3217177014433
 20
137.8814748731935
 10
222.3135804753384
 20
137.8641668764435
 10
222.3041367154204
 20
137.8452984300935
 10
222.2932815175134
 20
137.8249672857605
 10
222.2809087853514
 20
137.8032711950625
 10
222.2669124226654
 20
137.7803102938025
 10
222.2511887173734
 20
137.7561811415045
 10
222.2336303811154
 20
137.7309814897865
 10
222.2141313176234
 20
137.7048126665435
 10
222.1925878148164
 20
137.6777700392095
 10
222.1693729977694
 20
137.6505235639895
 10
222.1458029370394
 20
137.6246360746705
 10
222.1221375088774
 20
137.6001993624055
 10
222.0985698323333
 20
137.5772229639375
 10
222.0752954106413
 20
137.5557164160095
 10
222.0525097470364
 20
137.5356916395515
 10
222.0304071526613
 20
137.5171557871185
 10
222.0091843228424
 20
137.5001195875495
 10
221.9890343766294
 20
137.4845937696775
 10
221.9701528172574
 20
137.4705878702485
 10
221.9527351479614
 20
137.4581126180975
 10
221.9369756798824
 20
137.4471763578735
 10
221.9230687241644
 20
137.4377898184145
  0
LWPOLYLINE
  5
71D
330
1F
100
AcDbEntity
  8
Sichtbare_Kanten_TC_020513_DIN_
  6
Continuous
 62
     7
100
AcDbPolyline
 90
       25
 70
     0
 43
0.0
 10
222.9967581849174
 20
138.8377896753635
 10
222.9691016297414
 20
138.8359550443975
 10
222.9414999108394
 20
138.8304714170775
 10
222.9139363389094
 20
138.8213662115425
 10
222.8863918404654
 20
138.8086704222045
 10
222.8588497262084
 20
138.7924126592955
 10
222.8312909226494
 20
138.7726203409515
 10
222.8036975483973
 20
138.7493244615875
 10
222.7760517220574
 20
138.7225536314335
 10
222.7483856301383
 20
138.6923948732695
 10
222.7207767586784
 20
138.6590162721955
 10
222.6932072262844
 20
138.6225048509925
 10
222.6656615357474
 20
138.5829404798835
 10
222.6381194214903
 20
138.5404066053715
 10
222.6105641942103
 20
138.4949854818665
 10
222.5829779725154
 20
138.4467581716865
 10
222.5553428750114
 20
138.3958081213325
 10
222.5276708226284
 20
138.3422783819525
 10
222.5000476460534
 20
138.2864753214205
 10
222.4724626164514
 20
138.2285360304205
 10
222.4448990445214
 20
138.1685809103335
 10
222.4173390488704
 20
138.1067315546355
 10
222.3897635560114
 20
138.0431059805235
 10
222.3621558766444
 20
137.9778269735665
 10
222.3344969372834
 20
137.9110137430515
  0
LWPOLYLINE
  5
71E
330
1F
100
AcDbEntity
  8
Sichtbare_Kanten_TC_020513_DIN_
  6
Continuous
 62
     7
100
AcDbPolyline
 90
       25
 70
     0
 43
0.0
 10
221.7311882596104
 20
126.2776444164595
 10
221.7213606457794
 20
126.3240087834685
 10
221.7115366082274
 20
126.3707298842755
 10
221.7017149548614
 20
126.4177960959755
 10
221.6918968777744
 20
126.4651951996175
 10
221.6820799927794
 20
126.5129155722945
 10
221.6722631077853
 20
126.5609452930775
 10
221.6624474148834
 20
126.6092718449915
 10
221.6526305298893
 20
126.6578839031545
 10
221.6428124528014
 20
126.7067692486135
 10
221.6329907994354
 20
126.7559156624165
 10
221.6231667618834
 20
126.8053112236345
 10
221.6133379559604
 20
126.8549446073855
 10
221.6035103421294
 20
126.9047788587895
 10
221.5936863045774
 20
126.9547758308735
 10
221.5838646512114
 20
127.0049241987555
 10
221.5740465741243
 20
127.0552108494125
 10
221.5642296891294
 20
127.1056226698245
 10
221.5544128041353
 20
127.1561483351075
 10
221.5445971112334
 20
127.2067747322405
 10
221.5347802262394
 20
127.2574887482015
 10
221.5249621491514
 20
127.3082784620605
 10
221.5151404957854
 20
127.3591313568435
 10
221.5053164582334
 20
127.4100343195285
 10
221.4954888444034
 20
127.4609754291855
  0
LWPOLYLINE
  5
71F
330
1F
100
AcDbEntity
  8
Sichtbare_Kanten_TC_020513_DIN_
  6
Continuous
 62
     7
100
AcDbPolyline
 90
       25
 70
     0
 43
0.0
 10
221.4954888444034
 20
127.4609754291855
 10
221.5053164582334
 20
127.4355051723805
 10
221.5151404957854
 20
127.4100533930145
 10
221.5249621491514
 20
127.3846272436465
 10
221.5347802262384
 20
127.3592320886935
 10
221.5445971112334
 20
127.3338750807135
 10
221.5544128041344
 20
127.3085621801695
 10
221.5642296891294
 20
127.2832993475285
 10
221.5740465741234
 20
127.2580931392995
 10
221.5838646512114
 20
127.2329501119935
 10
221.5936863045774
 20
127.2078756300295
 10
221.6035103421294
 20
127.1828774420105
 10
221.6133379559594
 20
127.1579603163085
 10
221.6231667618834
 20
127.1331433264105
 10
221.6329907994354
 20
127.1084455458015
 10
221.6428124528014
 20
127.0838723388995
 10
221.6526305298884
 20
127.0594296661695
 10
221.6624474148834
 20
127.0351234880775
 10
221.6722631077844
 20
127.0109603611315
 10
221.6820799927794
 20
126.9869456497515
 10
221.6918968777733
 20
126.9630853144015
 10
221.7017149548614
 20
126.9393859115925
 10
221.7115366082274
 20
126.9158528057425
 10
221.7213606457794
 20
126.8924919573155
 10
221.7311882596094
 20
126.8693099228225
  0
LWPOLYLINE
  5
720
330
1F
100
AcDbEntity
  8
Sichtbare_Kanten_TC_020513_DIN_
  6
Continuous
 62
     7
100
AcDbPolyline
 90
       25
 70
     0
 43
0.0
 10
213.6609887700174
 20
139.2421475855195
 10
213.6575674634063
 20
139.2510763613065
 10
213.6542892079444
 20
139.2600039450015
 10
213.6511587720004
 20
139.2689315286955
 10
213.6481713872044
 20
139.2778591123905
 10
213.6453294377414
 20
139.2867855039925
 10
213.6426305394264
 20
139.2957130876865
 10
213.6400794606294
 20
139.3046394792885
 10
213.6376714329804
 20
139.3135670629825
 10
213.6354088406654
 20
139.3224934545835
 10
213.6332916836823
 20
139.3314210382785
 10
213.6313199620334
 20
139.3403498140655
 10
213.6294960599034
 20
139.3492785898535
 10
213.6278152089204
 20
139.3582061735475
 10
213.6262797932714
 20
139.3671349493355
 10
213.6248921971414
 20
139.3760625330295
 10
213.6236500363434
 20
139.3849901167235
 10
213.6225533108804
 20
139.3939165083255
 10
213.6216044049353
 20
139.4028440920195
 10
213.6207985501374
 20
139.4117704836215
 10
213.6201405148594
 20
139.4206968752235
 10
213.6196302991004
 20
139.4296244589175
 10
213.6192631344883
 20
139.4385520426125
 10
213.6190437893953
 20
139.4474808183995
 10
213.6189698796364
 20
139.4564084020935
  0
LWPOLYLINE
  5
721
330
1F
100
AcDbEntity
  8
Sichtbare_Kanten_TC_020513_DIN_
  6
Continuous
 62
     7
100
AcDbPolyline
 90
       25
 70
     0
 43
0.0
 10
215.0189709286784
 20
139.4564084020935
 10
215.0190066914644
 20
139.4474808183995
 10
215.0191163640114
 20
139.4385520426125
 10
215.0192999463174
 20
139.4296244589175
 10
215.0195550541964
 20
139.4206968752235
 10
215.0198840718354
 20
139.4117704836215
 10
215.0202869992344
 20
139.4028440920195
 10
215.0207614522074
 20
139.3939165083255
 10
215.0213098149384
 20
139.3849901167235
 10
215.0219320874303
 20
139.3760625330295
 10
215.0226258854954
 20
139.3671349493355
 10
215.0233935933204
 20
139.3582061735475
 10
215.0242328267183
 20
139.3492785898535
 10
215.0251459698764
 20
139.3403498140655
 10
215.0261306386084
 20
139.3314210382785
 10
215.0271892170994
 20
139.3224934545835
 10
215.0283217053504
 20
139.3135670629825
 10
215.0295257191744
 20
139.3046394792885
 10
215.0308012585724
 20
139.2957130876865
 10
215.0321507077304
 20
139.2867855039925
 10
215.0335716824624
 20
139.2778591123905
 10
215.0350641827674
 20
139.2689315286955
 10
215.0366305928324
 20
139.2600039450015
 10
215.0382685284704
 20
139.2510763613065
 10
215.0399803738683
 20
139.2421475855195
  0
LWPOLYLINE
  5
722
330
1F
100
AcDbEntity
  8
Sichtbare_Kanten_TC_020513_DIN_
  6
Continuous
 62
     7
100
AcDbPolyline
 90
       25
 70
     0
 43
0.0
 10
216.4189719777194
 20
138.3453623262725
 10
216.4035009961214
 20
138.3586374727575
 10
216.3880300145234
 20
138.3719126192415
 10
216.3725614171114
 20
138.3851865736335
 10
216.3570952038844
 20
138.3984605280245
 10
216.3416313748443
 20
138.4117332903235
 10
216.3261699299894
 20
138.4250072447145
 10
216.3107108693204
 20
138.4382811991065
 10
216.2952541928374
 20
138.4515539614045
 10
216.2798022847254
 20
138.4648279157965
 10
216.2643527608004
 20
138.4781018701875
 10
216.2489080052454
 20
138.4913770166725
 10
216.2334704022484
 20
138.5046509710635
 10
216.2180351834374
 20
138.5179261175475
 10
216.2026071171844
 20
138.5312012640325
 10
216.1871885876734
 20
138.5444752184235
 10
216.1717748265344
 20
138.5577491728155
 10
216.1563706021394
 20
138.5710219351135
 10
216.1409735303004
 20
138.5842958895055
 10
216.1255859952054
 20
138.5975698438965
 10
216.1102056126674
 20
138.6108426061955
 10
216.0948347668734
 20
138.6241165605865
 10
216.0794734578214
 20
138.6373905149785
 10
216.0641240696984
 20
138.6506656614625
 10
216.0487818341334
 20
138.6639408079475
  0
LWPOLYLINE
  5
723
330
1F
100
AcDbEntity
  8
Sichtbare_Kanten_TC_020513_DIN_
  6
Continuous
 62
     7
100
AcDbPolyline
 90
       25
 70
     0
 43
0.0
 10
216.2338757138334
 20
138.6639408079475
 10
216.2415480237094
 20
138.6506656614625
 10
216.2492227177704
 20
138.6373905149785
 10
216.2569021802033
 20
138.6241165605865
 10
216.2645887951933
 20
138.6108426061955
 10
216.2722777943694
 20
138.5975698438965
 10
216.2799715619174
 20
138.5842958895055
 10
216.2876700978364
 20
138.5710219351135
 10
216.2953734021274
 20
138.5577491728155
 10
216.3030790906034
 20
138.5444752184235
 10
216.3107895474514
 20
138.5312012640325
 10
216.3185023884853
 20
138.5179261175475
 10
216.3262199978914
 20
138.5046509710635
 10
216.3339399914824
 20
138.4913770166725
 10
216.3416623692594
 20
138.4781018701875
 10
216.3493871312224
 20
138.4648279157965
 10
216.3571118931854
 20
138.4515539614045
 10
216.3648414235204
 20
138.4382811991065
 10
216.3725709538543
 20
138.4250072447145
 10
216.3803004841894
 20
138.4117332903235
 10
216.3880323987094
 20
138.3984605280245
 10
216.3957666974154
 20
138.3851865736335
 10
216.4035009961214
 20
138.3719126192415
 10
216.4112352948274
 20
138.3586374727575
 10
216.4189719777194
 20
138.3453623262725
  0
LWPOLYLINE
  5
724
330
1F
100
AcDbEntity
  8
Sichtbare_Kanten_TC_020513_DIN_
  6
Continuous
 62
     7
100
AcDbPolyline
 90
       25
 70
     0
 43
0.0
 10
216.0487818341334
 20
138.6639408079475
 10
216.0353684048734
 20
138.6753026453345
 10
216.0187339406094
 20
138.6889151541075
 10
215.9989094357574
 20
138.7045041529025
 10
215.9759235005463
 20
138.7218014208165
 10
215.9498095135774
 20
138.7405351606695
 10
215.9205937008944
 20
138.7604347673735
 10
215.8883070569124
 20
138.7812308279365
 10
215.8529805760464
 20
138.8026503530825
 10
215.8146428685274
 20
138.8244239298195
 10
215.7733249287684
 20
138.8462809530585
 10
215.7290553670014
 20
138.8679508177125
 10
215.6818651776394
 20
138.8891629186955
 10
215.6317853550993
 20
138.9096454588255
 10
215.5789899449434
 20
138.9290873018585
 10
215.5253791432464
 20
138.9467743841495
 10
215.4715990643584
 20
138.9625386205995
 10
215.4177379231534
 20
138.9763931242315
 10
215.3638839345064
 20
138.9883545843445
 10
215.3101229291044
 20
138.9984373060555
 10
215.2565431218224
 20
139.0066532102905
 10
215.2032303433504
 20
139.0130189863525
 10
215.1502728085604
 20
139.0175477472625
 10
215.0977587323274
 20
139.0202537981355
 10
215.0457739453394
 20
139.0211526361785
  0
LWPOLYLINE
  5
725
330
1F
100
AcDbEntity
  8
Sichtbare_Kanten_TC_020513_DIN_
  6
Continuous
 62
     7
100
AcDbPolyline
 90
       25
 70
     0
 43
0.0
 10
215.7323717694364
 20
139.0211526361785
 10
215.7598423581204
 20
139.0201369730315
 10
215.7874059300514
 20
139.0171138254485
 10
215.8150052647674
 20
139.0121225324955
 10
215.8425831418123
 20
139.0052012411445
 10
215.8700823407264
 20
138.9963892904605
 10
215.8974384884924
 20
138.9857295957885
 10
215.9243845563024
 20
138.9733652082765
 10
215.9507917981234
 20
138.9594141451205
 10
215.9766244511694
 20
138.9439586607305
 10
216.0018443684664
 20
138.9270810095155
 10
216.0264134030423
 20
138.9088658300725
 10
216.0502981762974
 20
138.8893953768105
 10
216.0733699421964
 20
138.8688341585485
 10
216.0950827221954
 20
138.8477806059205
 10
216.1153602223483
 20
138.8265291658725
 10
216.1342048268404
 20
138.8053063360535
 10
216.1516236882293
 20
138.7843409983005
 10
216.1676144223293
 20
138.7638620344485
 10
216.1821865658844
 20
138.7440959421485
 10
216.1953425030794
 20
138.7252704111425
 10
216.2070870022864
 20
138.7076143232665
 10
216.2174200635043
 20
138.6913553682655
 10
216.2263488392914
 20
138.6767212358795
 10
216.2338757138334
 20
138.6639408079475
  0
LWPOLYLINE
  5
726
330
1F
100
AcDbEntity
  8
Sichtbare_Kanten_TC_020513_DIN_
  6
Continuous
 62
     7
100
AcDbPolyline
 90
       25
 70
     0
 43
0.0
 10
214.0499114613614
 20
139.0211526361785
 10
214.0204929928864
 20
139.0216914621675
 10
213.9920711140714
 20
139.0233115164125
 10
213.9646553616614
 20
139.0260175672855
 10
213.9382552723974
 20
139.0298143831575
 10
213.9128803830234
 20
139.0347043482155
 10
213.8885426144684
 20
139.0406934229225
 10
213.8652491192904
 20
139.0477851835575
 10
213.8430118184173
 20
139.0559843984925
 10
213.8218426327794
 20
139.0652946440065
 10
213.8017582516754
 20
139.0757159200995
 10
213.7831711392494
 20
139.0869978872625
 10
213.7662219624604
 20
139.0989116636595
 10
213.7508248906224
 20
139.1113213507025
 10
213.7369036297884
 20
139.1240934339845
 10
213.7243771176424
 20
139.1370932070105
 10
213.7131619076814
 20
139.1501859632815
 10
213.7031793217744
 20
139.1632381883945
 10
213.6943459134184
 20
139.1761139837585
 10
213.6865830044833
 20
139.1886798349705
 10
213.6798095326514
 20
139.2007998434395
 10
213.6739444356054
 20
139.2123416868535
 10
213.6689066510284
 20
139.2231694666235
 10
213.6646151166054
 20
139.2331496683445
 10
213.6609887700174
 20
139.2421475855195
  0
LWPOLYLINE
  5
727
330
1F
100
AcDbEntity
  8
Sichtbare_Kanten_TC_020513_DIN_
  6
Continuous
 62
     7
100
AcDbPolyline
 90
       25
 70
     0
 43
0.0
 10
215.0399803738683
 20
139.2421475855195
 10
215.0418066601844
 20
139.2330638376555
 10
215.0439428906524
 20
139.2230848280275
 10
215.0464319806184
 20
139.2123297659245
 10
215.0493096928684
 20
139.2009226290075
 10
215.0526237111184
 20
139.1889838186585
 10
215.0564097981543
 20
139.1766349283545
 10
215.0607084851354
 20
139.1639987436615
 10
215.0655626874064
 20
139.1511956659645
 10
215.0710129361244
 20
139.1383484808295
 10
215.0770997624484
 20
139.1255787817325
 10
215.0838613133514
 20
139.1130081621495
 10
215.0913428883644
 20
139.1007582155555
 10
215.0995802502724
 20
139.0889505354255
 10
215.1086163144194
 20
139.0777079073275
 10
215.1184224705784
 20
139.0672234503115
 10
215.1288532834143
 20
139.0577463117925
 10
215.1399063687414
 20
139.0493074861855
 10
215.1515912633034
 20
139.0419272390685
 10
215.1639198880284
 20
139.0356270281165
 10
215.1768731694314
 20
139.0304366556495
 10
215.1904105763524
 20
139.0263859239905
 10
215.2045225720494
 20
139.0234831777895
 10
215.2191996197784
 20
139.0217367616975
 10
215.2344417195404
 20
139.0211526361785
  0
SOLID
  5
728
330
1F
100
AcDbEntity
  8
1
 62
     2
100
AcDbTrace
 10
262.1702787018676
 20
63.63838468804752
 30
0.0
 11
261.5702913931689
 21
63.12459395851224
 31
0.0
 12
259.9189710240444
 22
65.66016735709562
 32
0.0
 13
259.9189710240444
 23
65.66016735709562
 33
0.0
  0
LEADER
  5
729
330
1F
100
AcDbEntity
  8
1
  6
Continuous
 62
     2
100
AcDbLeader
  3
Standard
 71
     0
 76
     3
 10
259.9189710240444
 20
65.66016735709562
 30
0.0
 10
278.755162199267
 20
43.663905066456
 30
0.0
 10
289.259429645159
 20
43.6855940100823
 30
0.0
  0
MTEXT
  5
72A
330
1F
100
AcDbEntity
  8
1
 62
     7
100
AcDbMText
 10
256.6763006887431
 20
10.0606394207561
 30
0.0
 40
4.5
 41
0.0
 71
     5
 72
     1
  1
1:1
  7
CONVERTER_11
 73
     1
 44
0.75727272727273
  0
MTEXT
  5
72B
330
1F
100
AcDbEntity
  8
1
 62
     7
100
AcDbMText
 10
119.6
 20
7.49999999999987
 30
0.0
 40
3.0
 41
0.0
 71
     4
 72
     1
  1
Pezzimenti
  7
CONVERTER_11
 73
     1
 44
0.75727272727273
  0
MTEXT
  5
72C
330
1F
100
AcDbEntity
  8
1
 62
     7
100
AcDbMText
 10
119.6
 20
12.4999999999999
 30
0.0
 40
3.0
 41
0.0
 71
     4
 72
     1
  1
08/08/14
  7
CONVERTER_11
 73
     1
 44
0.75727272727273
  0
MTEXT
  5
72D
330
1F
100
AcDbEntity
  8
1
 62
     7
100
AcDbMText
 10
144.276300688743
 20
12.5
 30
0.0
 40
4.5
 41
0.0
 71
     4
 72
     1
  1
C7P 24 \PSurface mounting housing, 2 levers. PG21.
  7
CONVERTER_11
 73
     1
 44
0.75727272727273
  0
MTEXT
  5
72F
330
1F
100
AcDbEntity
  8
1
 62
     4
100
AcDbMText
 10
279.738772820002
 20
45.9138328415019
 30
0.0
 40
3.5
 41
0.0
 71
     7
 72
     1
  1
\U+00f85,5
  7
CONVERTER_13
 73
     1
 44
1.32052821128451
  0
DIMENSION
  5
73A
330
1F
100
AcDbEntity
  8
1
100
AcDbDimension
  2
*D2
 10
284.776078591893
 20
128.6601673570955
 30
0.0
 11
281.276078591893
 21
97.16016735709557
 31
0.0
 70
    32
  1
<>
 71
     5
 42
-1.0
 53
90.0
  3
ME10_DIM_10
100
AcDbAlignedDimension
 13
265.9189710240424
 23
65.66016735709562
 33
0.0
 14
259.4689710240484
 24
128.6601673570955
 34
0.0
 50
90.0
100
AcDbRotatedDimension
  0
DIMENSION
  5
747
330
1F
100
AcDbEntity
  8
1
100
AcDbDimension
  2
*D3
 10
276.784056268449
 20
65.66016735709562
 30
0.0
 11
273.284056268449
 21
77.9040793047389
 31
0.0
 70
    32
  1
<>
 71
     5
 42
-1.0
 53
90.0
  3
ME10_DIM_11
100
AcDbAlignedDimension
 13
265.9189710240424
 23
69.66016735709562
 33
0.0
 14
265.9189710240424
 24
65.66016735709562
 34
0.0
 50
90.0
100
AcDbRotatedDimension
  0
DIMENSION
  5
752
330
1F
100
AcDbEntity
  8
1
100
AcDbDimension
  2
*D4
 10
208.9189710240424
 20
32.5
 30
0.0
 11
237.4189710240424
 21
36.0
 31
0.0
 70
    32
  1
<>
 71
     5
 42
-1.0
 53
0.00013888888889
  3
ME10_DIM_12
100
AcDbAlignedDimension
 13
265.9189710240424
 23
65.66016735709562
 33
0.0
 14
208.9189710240424
 24
65.66016735709562
 34
0.0
100
AcDbRotatedDimension
  0
DIMENSION
  5
75D
330
1F
100
AcDbEntity
  8
1
100
AcDbDimension
  2
*D5
 10
214.9189710240444
 20
45.2
 30
0.0
 11
237.4189710240444
 21
48.7
 31
0.0
 70
    32
  1
<>
 71
     5
 42
-1.0
 53
0.00013888888889
  3
ME10_DIM_13
100
AcDbAlignedDimension
 13
259.9189710240444
 23
63.16016735709562
 33
0.0
 14
214.9189710240444
 24
63.16016735709562
 34
0.0
100
AcDbRotatedDimension
  0
DIMENSION
  5
768
330
1F
100
AcDbEntity
  8
1
100
AcDbDimension
  2
*D6
 10
25.63740551460336
 20
32.5
 30
0.0
 11
97.63740551460336
 21
36.0
 31
0.0
 70
    32
  1
<>
 71
     5
 42
-1.0
 53
0.00013888888889
  3
ME10_DIM_14
100
AcDbAlignedDimension
 13
169.6374055146034
 23
65.66016735709562
 33
0.0
 14
25.63740551460336
 24
65.66016735709562
 34
0.0
100
AcDbRotatedDimension
  0
DIMENSION
  5
773
330
1F
100
AcDbEntity
  8
1
100
AcDbDimension
  2
*D7
 10
31.63740551460336
 20
45.2
 30
0.0
 11
97.63740551460336
 21
48.7
 31
0.0
 70
    32
  1
<>
 71
     5
 42
-1.0
 53
0.00013888888889
  3
ME10_DIM_15
100
AcDbAlignedDimension
 13
163.6374055146034
 23
63.16016735709562
 33
0.0
 14
31.63740551460336
 24
63.16016735709562
 34
0.0
100
AcDbRotatedDimension
  0
DIMENSION
  5
77E
330
1F
100
AcDbEntity
  8
1
100
AcDbDimension
  2
*D8
 10
185.006308555605
 20
70.49816735709562
 30
0.0
 11
181.506308555605
 21
85.05016735709557
 31
0.0
 70
    32
  1
PG21
 71
     5
 42
-1.0
 53
90.0
  3
ME10_DIM_16
100
AcDbAlignedDimension
 13
169.6374055146034
 23
99.60216735709552
 33
0.0
 14
169.7374055146034
 24
70.49816735709562
 34
0.0
 50
90.0
100
AcDbRotatedDimension
  0
DIMENSION
  5
789
330
1F
100
AcDbEntity
  8
1
100
AcDbDimension
  2
*D9
 10
181.0713554863194
 20
166.7
 30
0.0
 11
97.63740551460342
 21
170.2
 31
0.0
 70
    32
  1
167
 71
     5
 42
-1.0
 53
0.00013888888889
  3
ME10_DIM_17
100
AcDbAlignedDimension
 13
14.20345554288741
 23
110.6601673570955
 33
0.0
 14
181.0713554863194
 24
110.6601673570955
 34
0.0
100
AcDbRotatedDimension
  0
DIMENSION
  5
794
330
1F
100
AcDbEntity
  8
1
100
AcDbDimension
  2
*D10
 10
208.9189710240534
 20
166.7
 30
0.0
 11
237.4189710240534
 21
170.2
 31
0.0
 70
    32
  1
58
 71
     5
 42
-1.0
 53
0.00013888888889
  3
ME10_DIM_18
100
AcDbAlignedDimension
 13
265.9189710240534
 23
125.6601673570955
 33
0.0
 14
208.9189710240534
 24
125.6601673570955
 34
0.0
100
AcDbRotatedDimension
  0
ENDSEC
  0
SECTION
  2
OBJECTS
  0
DICTIONARY
  5
C
330
0
100
AcDbDictionary
281
     1
  3
ACAD_GROUP
350
D
  3
ACAD_LAYOUT
350
1A
  3
ACAD_MATERIAL
350
3B
  3
ACAD_MLEADERSTYLE
350
797
  3
ACAD_MLINESTYLE
350
17
  3
ACAD_PLOTSETTINGS
350
19
  3
ACAD_PLOTSTYLENAME
350
E
  3
ACAD_VISUALSTYLE
350
2A
  3
AcDbVariableDictionary
350
795
  0
DICTIONARY
  5
D
102
{ACAD_REACTORS
330
C
102
}
330
C
100
AcDbDictionary
281
     1
  0
DICTIONARY
  5
1A
102
{ACAD_REACTORS
330
C
102
}
330
C
100
AcDbDictionary
281
     1
  3
Layout1
350
1E
  3
Layout2
350
26
  3
Model
350
22
  0
DICTIONARY
  5
3B
102
{ACAD_REACTORS
330
C
102
}
330
C
100
AcDbDictionary
281
     1
  3
ByBlock
350
3D
  3
ByLayer
350
3C
  3
Global
350
3E
  0
DICTIONARY
  5
797
102
{ACAD_REACTORS
330
C
102
}
330
C
100
AcDbDictionary
281
     1
  0
DICTIONARY
  5
17
102
{ACAD_REACTORS
330
C
102
}
330
C
100
AcDbDictionary
281
     1
  3
Standard
350
18
  0
DICTIONARY
  5
19
102
{ACAD_REACTORS
330
C
102
}
330
C
100
AcDbDictionary
281
     1
  0
ACDBDICTIONARYWDFLT
  5
E
102
{ACAD_REACTORS
330
C
102
}
330
C
100
AcDbDictionary
281
     1
  3
Normal
350
F
100
AcDbDictionaryWithDefault
340
F
  0
DICTIONARY
  5
2A
102
{ACAD_REACTORS
330
C
102
}
330
C
100
AcDbDictionary
281
     1
  3
2dWireframe
350
2F
  3
3D Hidden
350
31
  3
3dWireframe
350
30
  3
Basic
350
32
  3
Brighten
350
36
  3
ColorChange
350
3A
  3
Conceptual
350
34
  3
Dim
350
35
  3
Facepattern
350
39
  3
Flat
350
2B
  3
FlatWithEdges
350
2C
  3
Gouraud
350
2D
  3
GouraudWithEdges
350
2E
  3
Linepattern
350
38
  3
Realistic
350
33
  3
Thicken
350
37
  0
DICTIONARY
  5
795
102
{ACAD_REACTORS
330
C
102
}
330
C
100
AcDbDictionary
281
     1
  3
DIMASSOC
350
798
  3
HIDETEXT
350
799
  0
LAYOUT
  5
1E
102
{ACAD_REACTORS
330
1A
102
}
330
1A
100
AcDbPlotSettings
  1

  2
none_device
  4

  6

 40
0.0
 41
0.0
 42
0.0
 43
0.0
 44
0.0
 45
0.0
 46
0.0
 47
0.0
 48
0.0
 49
0.0
140
0.0
141
0.0
142
1.0
143
1.0
 70
   688
 72
     0
 73
     0
 74
     5
  7

 75
    16
147
1.0
148
0.0
149
0.0
100
AcDbLayout
  1
Layout1
 70
     1
 71
     1
 10
0.0
 20
0.0
 11
12.0
 21
9.0
 12
0.0
 22
0.0
 32
0.0
 14
1.00000000000000E+20
 24
1.00000000000000E+20
 34
1.00000000000000E+20
 15
-1.00000000000000E+20
 25
-1.00000000000000E+20
 35
-1.00000000000000E+20
146
0.0
 13
0.0
 23
0.0
 33
0.0
 16
1.0
 26
0.0
 36
0.0
 17
0.0
 27
1.0
 37
0.0
 76
     0
330
1B
  0
LAYOUT
  5
26
102
{ACAD_REACTORS
330
1A
102
}
330
1A
100
AcDbPlotSettings
  1

  2
none_device
  4

  6

 40
0.0
 41
0.0
 42
0.0
 43
0.0
 44
0.0
 45
0.0
 46
0.0
 47
0.0
 48
0.0
 49
0.0
140
0.0
141
0.0
142
1.0
143
1.0
 70
   688
 72
     0
 73
     0
 74
     5
  7

 75
    16
147
1.0
148
0.0
149
0.0
100
AcDbLayout
  1
Layout2
 70
     1
 71
     2
 10
0.0
 20
0.0
 11
0.0
 21
0.0
 12
0.0
 22
0.0
 32
0.0
 14
0.0
 24
0.0
 34
0.0
 15
0.0
 25
0.0
 35
0.0
146
0.0
 13
0.0
 23
0.0
 33
0.0
 16
1.0
 26
0.0
 36
0.0
 17
0.0
 27
1.0
 37
0.0
 76
     0
330
23
  0
LAYOUT
  5
22
102
{ACAD_REACTORS
330
1A
102
}
330
1A
100
AcDbPlotSettings
  1

  2
none_device
  4

  6

 40
0.0
 41
0.0
 42
0.0
 43
0.0
 44
0.0
 45
0.0
 46
0.0
 47
0.0
 48
0.0
 49
0.0
140
0.0
141
0.0
142
1.0
143
1.0
 70
  1712
 72
     0
 73
     0
 74
     0
  7

 75
     0
147
1.0
148
0.0
149
0.0
100
AcDbLayout
  1
Model
 70
     1
 71
     0
 10
0.0
 20
0.0
 11
12.0
 21
9.0
 12
0.0
 22
0.0
 32
0.0
 14
0.0
 24
0.0
 34
0.0
 15
296.9999999999999
 25
210.0
 35
0.0
146
0.0
 13
0.0
 23
0.0
 33
0.0
 16
1.0
 26
0.0
 36
0.0
 17
0.0
 27
1.0
 37
0.0
 76
     0
330
1F
331
29
  0
MATERIAL
  5
3D
102
{ACAD_REACTORS
330
3B
102
}
102
{ACAD_XDICTIONARY
360
7BC
102
}
330
3B
100
AcDbMaterial
  1
ByBlock
  0
MATERIAL
  5
3C
102
{ACAD_REACTORS
330
3B
102
}
102
{ACAD_XDICTIONARY
360
7BA
102
}
330
3B
100
AcDbMaterial
  1
ByLayer
  0
MATERIAL
  5
3E
102
{ACAD_REACTORS
330
3B
102
}
102
{ACAD_XDICTIONARY
360
7BE
102
}
330
3B
100
AcDbMaterial
  1
Global
  0
MLINESTYLE
  5
18
102
{ACAD_REACTORS
330
17
102
}
330
17
100
AcDbMlineStyle
  2
Standard
 70
     0
  3

 62
   256
 51
90.0
 52
90.0
 71
     2
 49
0.5
 62
   256
  6
BYLAYER
 49
-0.5
 62
   256
  6
BYLAYER
  0
ACDBPLACEHOLDER
  5
F
102
{ACAD_REACTORS
330
E
102
}
330
E
  0
VISUALSTYLE
  5
2F
102
{ACAD_REACTORS
330
2A
102
}
102
{ACAD_XDICTIONARY
360
7A2
102
}
330
2A
100
AcDbVisualStyle
  2
2dWireframe
 70
     4
 71
     0
 72
     2
 73
     0
 90
        0
 40
-0.6
 41
-30.0
 62
     5
 63
     7
 74
     1
 91
        4
 64
     7
 65
   257
 75
     1
175
     1
 42
1.0
 92
        0
 66
   257
 43
1.0
 76
     1
 77
     6
 78
     2
 67
     7
 79
     5
170
     0
171
     0
290
     0
174
     0
 93
        1
 44
0.0
173
     0
291
     0
 45
0.0
1001
ACAD
1000
AcDbSavedByObjectVersion
1070
     0
  0
VISUALSTYLE
  5
31
102
{ACAD_REACTORS
330
2A
102
}
102
{ACAD_XDICTIONARY
360
7A6
102
}
330
2A
100
AcDbVisualStyle
  2
3D Hidden
 70
     6
 71
     1
 72
     2
 73
     2
 90
        0
 40
-0.6
 41
-30.0
 62
     5
 63
     7
 74
     2
 91
        2
 64
     7
 65
   257
 75
     2
175
     1
 42
40.0
 92
        0
 66
   257
 43
1.0
 76
     1
 77
     6
 78
     2
 67
     7
 79
     3
170
     0
171
     0
290
     0
174
     0
 93
        1
 44
0.0
173
     0
291
     0
 45
0.0
1001
ACAD
1000
AcDbSavedByObjectVersion
1070
     0
  0
VISUALSTYLE
  5
30
102
{ACAD_REACTORS
330
2A
102
}
102
{ACAD_XDICTIONARY
360
7A4
102
}
330
2A
100
AcDbVisualStyle
  2
3dWireframe
 70
     5
 71
     0
 72
     2
 73
     0
 90
        0
 40
-0.6
 41
-30.0
 62
     5
 63
     7
 74
     1
 91
        4
 64
     7
 65
   257
 75
     1
175
     1
 42
1.0
 92
        0
 66
   257
 43
1.0
 76
     1
 77
     6
 78
     2
 67
     7
 79
     5
170
     0
171
     0
290
     0
174
     0
 93
        1
 44
0.0
173
     0
291
     0
 45
0.0
1001
ACAD
1000
AcDbSavedByObjectVersion
1070
     0
  0
VISUALSTYLE
  5
32
102
{ACAD_REACTORS
330
2A
102
}
102
{ACAD_XDICTIONARY
360
7A8
102
}
330
2A
100
AcDbVisualStyle
  2
Basic
 70
     7
 71
     1
 72
     0
 73
     1
 90
        0
 40
-0.6
 41
-30.0
 62
     5
 63
     7
 74
     0
 91
        4
 64
     7
 65
   257
 75
     1
175
     1
 42
1.0
 92
        8
 66
     7
 43
1.0
 76
     1
 77
     6
 78
     2
 67
     7
 79
     5
170
     0
171
     0
290
     0
174
     0
 93
        1
 44
0.0
173
     0
291
     1
 45
0.0
1001
ACAD
1000
AcDbSavedByObjectVersion
1070
     0
  0
VISUALSTYLE
  5
36
102
{ACAD_REACTORS
330
2A
102
}
102
{ACAD_XDICTIONARY
360
7B0
102
}
330
2A
100
AcDbVisualStyle
  2
Brighten
 70
    12
 71
     2
 72
     2
 73
     0
 90
        0
 40
-0.6
 41
-30.0
 62
     5
 63
     7
 74
     1
 91
        4
 64
     7
 65
   257
 75
     1
175
     1
 42
1.0
 92
        8
 66
     7
 43
1.0
 76
     1
 77
     6
 78
     2
 67
     7
 79
     5
170
     0
171
     0
290
     0
174
     0
 93
        1
 44
50.0
173
     0
291
     1
 45
0.0
1001
ACAD
1000
AcDbSavedByObjectVersion
1070
     0
  0
VISUALSTYLE
  5
3A
102
{ACAD_REACTORS
330
2A
102
}
102
{ACAD_XDICTIONARY
360
7B8
102
}
330
2A
100
AcDbVisualStyle
  2
ColorChange
 70
    16
 71
     2
 72
     2
 73
     3
 90
        0
 40
-0.6
 41
-30.0
 62
     5
 63
     8
 74
     1
 91
        4
 64
     7
 65
   257
 75
     1
175
     1
 42
1.0
 92
        8
 66
     8
 43
1.0
 76
     1
 77
     6
 78
     2
 67
     7
 79
     5
170
     0
171
     0
290
     0
174
     0
 93
        1
 44
0.0
173
     0
291
     1
 45
0.0
1001
ACAD
1000
AcDbSavedByObjectVersion
1070
     0
  0
VISUALSTYLE
  5
34
102
{ACAD_REACTORS
330
2A
102
}
102
{ACAD_XDICTIONARY
360
7AC
102
}
330
2A
100
AcDbVisualStyle
  2
Conceptual
 70
     9
 71
     3
 72
     2
 73
     0
 90
        0
 40
-0.6
 41
-30.0
 62
     5
 63
     7
 74
     2
 91
        2
 64
     7
 65
   257
 75
     1
175
     1
 42
40.0
 92
        8
 66
     7
 43
1.0
 76
     1
 77
     6
 78
     2
 67
     7
 79
     3
170
     0
171
     0
290
     0
174
     0
 93
        1
 44
0.0
173
     0
291
     0
 45
0.0
1001
ACAD
1000
AcDbSavedByObjectVersion
1070
     0
  0
VISUALSTYLE
  5
35
102
{ACAD_REACTORS
330
2A
102
}
102
{ACAD_XDICTIONARY
360
7AE
102
}
330
2A
100
AcDbVisualStyle
  2
Dim
 70
    11
 71
     2
 72
     2
 73
     0
 90
        0
 40
-0.6
 41
-30.0
 62
     5
 63
     7
 74
     1
 91
        4
 64
     7
 65
   257
 75
     1
175
     1
 42
1.0
 92
        8
 66
     7
 43
1.0
 76
     1
 77
     6
 78
     2
 67
     7
 79
     5
170
     0
171
     0
290
     0
174
     0
 93
        1
 44
-50.0
173
     0
291
     1
 45
0.0
1001
ACAD
1000
AcDbSavedByObjectVersion
1070
     0
  0
VISUALSTYLE
  5
39
102
{ACAD_REACTORS
330
2A
102
}
102
{ACAD_XDICTIONARY
360
7B6
102
}
330
2A
100
AcDbVisualStyle
  2
Facepattern
 70
    15
 71
     2
 72
     2
 73
     0
 90
        0
 40
-0.6
 41
-30.0
 62
     5
 63
     7
 74
     1
 91
        4
 64
     7
 65
   257
 75
     1
175
     1
 42
1.0
 92
        8
 66
     7
 43
1.0
 76
     1
 77
     6
 78
     2
 67
     7
 79
     5
170
     0
171
     0
290
     0
174
     0
 93
        1
 44
0.0
173
     0
291
     1
 45
0.0
1001
ACAD
1000
AcDbSavedByObjectVersion
1070
     0
  0
VISUALSTYLE
  5
2B
102
{ACAD_REACTORS
330
2A
102
}
102
{ACAD_XDICTIONARY
360
79A
102
}
330
2A
100
AcDbVisualStyle
  2
Flat
 70
     0
 71
     2
 72
     1
 73
     1
 90
        2
 40
-0.6
 41
30.0
 62
     5
 63
     7
 74
     0
 91
        4
 64
     7
 65
   257
 75
     1
175
     1
 42
1.0
 92
        8
 66
     7
 43
1.0
 76
     1
 77
     6
 78
     2
 67
     7
 79
     5
170
     0
171
     0
290
     0
174
     0
 93
       13
 44
0.0
173
     0
291
     1
 45
0.0
1001
ACAD
1000
AcDbSavedByObjectVersion
1070
     0
  0
VISUALSTYLE
  5
2C
102
{ACAD_REACTORS
330
2A
102
}
102
{ACAD_XDICTIONARY
360
79C
102
}
330
2A
100
AcDbVisualStyle
  2
FlatWithEdges
 70
     1
 71
     2
 72
     1
 73
     1
 90
        2
 40
-0.6
 41
30.0
 62
     5
 63
     7
 74
     1
 91
        4
 64
     7
 65
   257
 75
     1
175
     1
 42
1.0
 92
        0
 66
   257
 43
1.0
 76
     1
 77
     6
 78
     2
 67
     7
 79
     5
170
     0
171
     0
290
     0
174
     0
 93
       13
 44
0.0
173
     0
291
     1
 45
0.0
1001
ACAD
1000
AcDbSavedByObjectVersion
1070
     0
  0
VISUALSTYLE
  5
2D
102
{ACAD_REACTORS
330
2A
102
}
102
{ACAD_XDICTIONARY
360
79E
102
}
330
2A
100
AcDbVisualStyle
  2
Gouraud
 70
     2
 71
     2
 72
     2
 73
     1
 90
        2
 40
-0.6
 41
30.0
 62
     5
 63
     7
 74
     0
 91
        4
 64
     7
 65
   257
 75
     1
175
     1
 42
1.0
 92
        0
 66
     7
 43
1.0
 76
     1
 77
     6
 78
     2
 67
     7
 79
     5
170
     0
171
     0
290
     0
174
     0
 93
       13
 44
0.0
173
     0
291
     1
 45
0.0
1001
ACAD
1000
AcDbSavedByObjectVersion
1070
     0
  0
VISUALSTYLE
  5
2E
102
{ACAD_REACTORS
330
2A
102
}
102
{ACAD_XDICTIONARY
360
7A0
102
}
330
2A
100
AcDbVisualStyle
  2
GouraudWithEdges
 70
     3
 71
     2
 72
     2
 73
     1
 90
        2
 40
-0.6
 41
30.0
 62
     5
 63
     7
 74
     1
 91
        4
 64
     7
 65
   257
 75
     1
175
     1
 42
1.0
 92
        0
 66
   257
 43
1.0
 76
     1
 77
     6
 78
     2
 67
     7
 79
     5
170
     0
171
     0
290
     0
174
     0
 93
       13
 44
0.0
173
     0
291
     1
 45
0.0
1001
ACAD
1000
AcDbSavedByObjectVersion
1070
     0
  0
VISUALSTYLE
  5
38
102
{ACAD_REACTORS
330
2A
102
}
102
{ACAD_XDICTIONARY
360
7B4
102
}
330
2A
100
AcDbVisualStyle
  2
Linepattern
 70
    14
 71
     2
 72
     2
 73
     0
 90
        0
 40
-0.6
 41
-30.0
 62
     5
 63
     7
 74
     1
 91
        4
 64
     7
 65
   257
 75
     7
175
     7
 42
1.0
 92
        8
 66
     7
 43
1.0
 76
     1
 77
     6
 78
     2
 67
     7
 79
     5
170
     0
171
     0
290
     0
174
     0
 93
        1
 44
0.0
173
     0
291
     1
 45
0.0
1001
ACAD
1000
AcDbSavedByObjectVersion
1070
     0
  0
VISUALSTYLE
  5
33
102
{ACAD_REACTORS
330
2A
102
}
102
{ACAD_XDICTIONARY
360
7AA
102
}
330
2A
100
AcDbVisualStyle
  2
Realistic
 70
     8
 71
     2
 72
     2
 73
     0
 90
        0
 40
-0.6
 41
-30.0
 62
     5
 63
     7
 74
     1
 91
        0
 64
     7
 65
   257
 75
     1
175
     1
 42
1.0
 92
        8
 66
     8
 43
1.0
 76
     1
 77
     6
 78
     2
 67
     7
 79
     5
170
     0
171
     0
290
     0
174
     0
 93
       13
 44
0.0
173
     0
291
     0
 45
0.0
1001
ACAD
1000
AcDbSavedByObjectVersion
1070
     0
  0
VISUALSTYLE
  5
37
102
{ACAD_REACTORS
330
2A
102
}
102
{ACAD_XDICTIONARY
360
7B2
102
}
330
2A
100
AcDbVisualStyle
  2
Thicken
 70
    13
 71
     2
 72
     2
 73
     0
 90
        0
 40
-0.6
 41
-30.0
 62
     5
 63
     7
 74
     1
 91
        4
 64
     7
 65
   257
 75
     1
175
     1
 42
1.0
 92
       12
 66
     7
 43
1.0
 76
     1
 77
     6
 78
     2
 67
     7
 79
     5
170
     0
171
     0
290
     0
174
     0
 93
        1
 44
0.0
173
     0
291
     1
 45
0.0
1001
ACAD
1000
AcDbSavedByObjectVersion
1070
     0
  0
DICTIONARYVAR
  5
798
102
{ACAD_REACTORS
330
795
102
}
330
795
100
DictionaryVariables
280
     0
  1
2
  0
DICTIONARYVAR
  5
799
102
{ACAD_REACTORS
330
795
102
}
330
795
100
DictionaryVariables
280
     0
  1
1
  0
DICTIONARY
  5
7BC
330
3D
100
AcDbDictionary
280
     1
281
     1
  3
ACAD_XREC_ROUNDTRIP
360
7BD
  0
DICTIONARY
  5
7BA
330
3C
100
AcDbDictionary
280
     1
281
     1
  3
ACAD_XREC_ROUNDTRIP
360
7BB
  0
DICTIONARY
  5
7BE
330
3E
100
AcDbDictionary
280
     1
281
     1
  3
ACAD_XREC_ROUNDTRIP
360
7BF
  0
DICTIONARY
  5
7A2
330
2F
100
AcDbDictionary
280
     1
281
     1
  3
ACAD_XREC_ROUNDTRIP
360
7A3
  0
DICTIONARY
  5
7A6
330
31
100
AcDbDictionary
280
     1
281
     1
  3
ACAD_XREC_ROUNDTRIP
360
7A7
  0
DICTIONARY
  5
7A4
330
30
100
AcDbDictionary
280
     1
281
     1
  3
ACAD_XREC_ROUNDTRIP
360
7A5
  0
DICTIONARY
  5
7A8
330
32
100
AcDbDictionary
280
     1
281
     1
  3
ACAD_XREC_ROUNDTRIP
360
7A9
  0
DICTIONARY
  5
7B0
330
36
100
AcDbDictionary
280
     1
281
     1
  3
ACAD_XREC_ROUNDTRIP
360
7B1
  0
DICTIONARY
  5
7B8
330
3A
100
AcDbDictionary
280
     1
281
     1
  3
ACAD_XREC_ROUNDTRIP
360
7B9
  0
DICTIONARY
  5
7AC
330
34
100
AcDbDictionary
280
     1
281
     1
  3
ACAD_XREC_ROUNDTRIP
360
7AD
  0
DICTIONARY
  5
7AE
330
35
100
AcDbDictionary
280
     1
281
     1
  3
ACAD_XREC_ROUNDTRIP
360
7AF
  0
DICTIONARY
  5
7B6
330
39
100
AcDbDictionary
280
     1
281
     1
  3
ACAD_XREC_ROUNDTRIP
360
7B7
  0
DICTIONARY
  5
79A
330
2B
100
AcDbDictionary
280
     1
281
     1
  3
ACAD_XREC_ROUNDTRIP
360
79B
  0
DICTIONARY
  5
79C
330
2C
100
AcDbDictionary
280
     1
281
     1
  3
ACAD_XREC_ROUNDTRIP
360
79D
  0
DICTIONARY
  5
79E
330
2D
100
AcDbDictionary
280
     1
281
     1
  3
ACAD_XREC_ROUNDTRIP
360
79F
  0
DICTIONARY
  5
7A0
330
2E
100
AcDbDictionary
280
     1
281
     1
  3
ACAD_XREC_ROUNDTRIP
360
7A1
  0
DICTIONARY
  5
7B4
330
38
100
AcDbDictionary
280
     1
281
     1
  3
ACAD_XREC_ROUNDTRIP
360
7B5
  0
DICTIONARY
  5
7AA
330
33
100
AcDbDictionary
280
     1
281
     1
  3
ACAD_XREC_ROUNDTRIP
360
7AB
  0
DICTIONARY
  5
7B2
330
37
100
AcDbDictionary
280
     1
281
     1
  3
ACAD_XREC_ROUNDTRIP
360
7B3
  0
XRECORD
  5
7BD
102
{ACAD_REACTORS
330
7BC
102
}
330
7BC
100
AcDbXrecord
280
     1
102
MATERIAL
148
0.0
149
0.0
149
0.0
 93
        0
 94
      127
282
     0
 72
     1
 77
     1
171
     1
175
     1
179
     1
273
     0
  0
XRECORD
  5
7BB
102
{ACAD_REACTORS
330
7BA
102
}
330
7BA
100
AcDbXrecord
280
     1
102
MATERIAL
148
0.0
149
0.0
149
0.0
 93
        0
 94
      127
282
     0
 72
     1
 77
     1
171
     1
175
     1
179
     1
273
     0
  0
XRECORD
  5
7BF
102
{ACAD_REACTORS
330
7BE
102
}
330
7BE
100
AcDbXrecord
280
     1
102
MATERIAL
148
0.0
149
0.0
149
0.0
 93
        0
 94
      127
282
     0
 72
     1
 77
     1
171
     1
175
     1
179
     1
273
     0
  0
XRECORD
  5
7A3
102
{ACAD_REACTORS
330
7A2
102
}
330
7A2
100
AcDbXrecord
280
     1
102
RTVSPropertyOp0
 70
     1
102
RTVSPropertyOp1
 70
     1
102
RTVSPropertyOp2
 70
     1
102
RTVSPropertyOp3
 70
     1
102
RTVSPropertyOp4
 70
     1
102
RTVSPropertyOp5
 70
     1
102
RTVSPropertyOp6
 70
     1
102
RTVSPropertyOp7
 70
     1
102
RTVSPropertyOp8
 70
     1
102
RTVSPropertyOp9
 70
     1
102
RTVSPropertyOp10
 70
     1
102
RTVSPropertyOp11
 70
     1
102
RTVSPropertyOp12
 70
     1
102
RTVSPropertyOp13
 70
     1
102
RTVSPropertyOp14
 70
     1
102
RTVSPropertyOp15
 70
     1
102
RTVSPropertyOp16
 70
     1
102
RTVSPropertyOp17
 70
     1
102
RTVSPropertyOp18
 70
     1
102
RTVSPropertyOp19
 70
     1
102
RTVSPropertyOp20
 70
     1
102
RTVSPropertyOp21
 70
     1
102
RTVSPropertyOp22
 70
     1
102
RTVSPropertyOp23
 70
     1
102
RTVSPropertyOp24
 70
     1
102
RTVSPropertyOp25
 70
     1
102
RTVSPropertyOp26
 70
     1
102
RTVSPropertyOp27
 70
     1
102
RTVSPropertyOp28
 70
     1
102
RTVSPropertyOp29
 70
     1
102
RTVSPropertyOp30
 70
     1
102
RTVSPropertyOp31
 70
     1
102
RTVSPropertyOp32
 70
     1
  0
XRECORD
  5
7A7
102
{ACAD_REACTORS
330
7A6
102
}
330
7A6
100
AcDbXrecord
280
     1
102
RTVSPropertyOp0
 70
     1
102
RTVSPropertyOp1
 70
     1
102
RTVSPropertyOp2
 70
     1
102
RTVSPropertyOp3
 70
     1
102
RTVSPropertyOp4
 70
     1
102
RTVSPropertyOp5
 70
     1
102
RTVSPropertyOp6
 70
     1
102
RTVSPropertyOp7
 70
     1
102
RTVSPropertyOp8
 70
     1
102
RTVSPropertyOp9
 70
     1
102
RTVSPropertyOp10
 70
     1
102
RTVSPropertyOp11
 70
     1
102
RTVSPropertyOp12
 70
     1
102
RTVSPropertyOp13
 70
     1
102
RTVSPropertyOp14
 70
     1
102
RTVSPropertyOp15
 70
     1
102
RTVSPropertyOp16
 70
     1
102
RTVSPropertyOp17
 70
     1
102
RTVSPropertyOp18
 70
     1
102
RTVSPropertyOp19
 70
     1
102
RTVSPropertyOp20
 70
     1
102
RTVSPropertyOp21
 70
     1
102
RTVSPropertyOp22
 70
     1
102
RTVSPropertyOp23
 70
     1
102
RTVSPropertyOp24
 70
     1
102
RTVSPropertyOp25
 70
     1
102
RTVSPropertyOp26
 70
     1
102
RTVSPropertyOp27
 70
     1
102
RTVSPropertyOp28
 70
     1
102
RTVSPropertyOp29
 70
     1
102
RTVSPropertyOp30
 70
     1
102
RTVSPropertyOp31
 70
     1
102
RTVSPropertyOp32
 70
     1
  0
XRECORD
  5
7A5
102
{ACAD_REACTORS
330
7A4
102
}
330
7A4
100
AcDbXrecord
280
     1
102
RTVSPropertyOp0
 70
     1
102
RTVSPropertyOp1
 70
     1
102
RTVSPropertyOp2
 70
     1
102
RTVSPropertyOp3
 70
     1
102
RTVSPropertyOp4
 70
     1
102
RTVSPropertyOp5
 70
     1
102
RTVSPropertyOp6
 70
     1
102
RTVSPropertyOp7
 70
     1
102
RTVSPropertyOp8
 70
     1
102
RTVSPropertyOp9
 70
     1
102
RTVSPropertyOp10
 70
     1
102
RTVSPropertyOp11
 70
     1
102
RTVSPropertyOp12
 70
     1
102
RTVSPropertyOp13
 70
     1
102
RTVSPropertyOp14
 70
     1
102
RTVSPropertyOp15
 70
     1
102
RTVSPropertyOp16
 70
     1
102
RTVSPropertyOp17
 70
     1
102
RTVSPropertyOp18
 70
     1
102
RTVSPropertyOp19
 70
     1
102
RTVSPropertyOp20
 70
     1
102
RTVSPropertyOp21
 70
     1
102
RTVSPropertyOp22
 70
     1
102
RTVSPropertyOp23
 70
     1
102
RTVSPropertyOp24
 70
     1
102
RTVSPropertyOp25
 70
     1
102
RTVSPropertyOp26
 70
     1
102
RTVSPropertyOp27
 70
     1
102
RTVSPropertyOp28
 70
     1
102
RTVSPropertyOp29
 70
     1
102
RTVSPropertyOp30
 70
     1
102
RTVSPropertyOp31
 70
     1
102
RTVSPropertyOp32
 70
     1
  0
XRECORD
  5
7A9
102
{ACAD_REACTORS
330
7A8
102
}
330
7A8
100
AcDbXrecord
280
     1
102
RTVSPropertyOp0
 70
     1
102
RTVSPropertyOp1
 70
     1
102
RTVSPropertyOp2
 70
     1
102
RTVSPropertyOp3
 70
     1
102
RTVSPropertyOp4
 70
     1
102
RTVSPropertyOp5
 70
     1
102
RTVSPropertyOp6
 70
     1
102
RTVSPropertyOp7
 70
     1
102
RTVSPropertyOp8
 70
     1
102
RTVSPropertyOp9
 70
     1
102
RTVSPropertyOp10
 70
     1
102
RTVSPropertyOp11
 70
     1
102
RTVSPropertyOp12
 70
     1
102
RTVSPropertyOp13
 70
     1
102
RTVSPropertyOp14
 70
     1
102
RTVSPropertyOp15
 70
     1
102
RTVSPropertyOp16
 70
     1
102
RTVSPropertyOp17
 70
     1
102
RTVSPropertyOp18
 70
     1
102
RTVSPropertyOp19
 70
     1
102
RTVSPropertyOp20
 70
     1
102
RTVSPropertyOp21
 70
     1
102
RTVSPropertyOp22
 70
     1
102
RTVSPropertyOp23
 70
     1
102
RTVSPropertyOp24
 70
     1
102
RTVSPropertyOp25
 70
     1
102
RTVSPropertyOp26
 70
     1
102
RTVSPropertyOp27
 70
     1
102
RTVSPropertyOp28
 70
     1
102
RTVSPropertyOp29
 70
     1
102
RTVSPropertyOp30
 70
     1
102
RTVSPropertyOp31
 70
     1
102
RTVSPropertyOp32
 70
     1
  0
XRECORD
  5
7B1
102
{ACAD_REACTORS
330
7B0
102
}
330
7B0
100
AcDbXrecord
280
     1
102
RTVSPropertyOp0
 70
     1
102
RTVSPropertyOp1
 70
     1
102
RTVSPropertyOp2
 70
     1
102
RTVSPropertyOp3
 70
     1
102
RTVSPropertyOp4
 70
     1
102
RTVSPropertyOp5
 70
     1
102
RTVSPropertyOp6
 70
     1
102
RTVSPropertyOp7
 70
     1
102
RTVSPropertyOp8
 70
     1
102
RTVSPropertyOp9
 70
     1
102
RTVSPropertyOp10
 70
     1
102
RTVSPropertyOp11
 70
     1
102
RTVSPropertyOp12
 70
     1
102
RTVSPropertyOp13
 70
     1
102
RTVSPropertyOp14
 70
     1
102
RTVSPropertyOp15
 70
     1
102
RTVSPropertyOp16
 70
     1
102
RTVSPropertyOp17
 70
     1
102
RTVSPropertyOp18
 70
     1
102
RTVSPropertyOp19
 70
     1
102
RTVSPropertyOp20
 70
     1
102
RTVSPropertyOp21
 70
     1
102
RTVSPropertyOp22
 70
     1
102
RTVSPropertyOp23
 70
     1
102
RTVSPropertyOp24
 70
     1
102
RTVSPropertyOp25
 70
     1
102
RTVSPropertyOp26
 70
     1
102
RTVSPropertyOp27
 70
     1
102
RTVSPropertyOp28
 70
     1
102
RTVSPropertyOp29
 70
     1
102
RTVSPropertyOp30
 70
     1
102
RTVSPropertyOp31
 70
     1
102
RTVSPropertyOp32
 70
     1
  0
XRECORD
  5
7B9
102
{ACAD_REACTORS
330
7B8
102
}
330
7B8
100
AcDbXrecord
280
     1
102
RTVSPropertyOp0
 70
     1
102
RTVSPropertyOp1
 70
     1
102
RTVSPropertyOp2
 70
     1
102
RTVSPropertyOp3
 70
     1
102
RTVSPropertyOp4
 70
     1
102
RTVSPropertyOp5
 70
     1
102
RTVSPropertyOp6
 70
     1
102
RTVSPropertyOp7
 70
     1
102
RTVSPropertyOp8
 70
     1
102
RTVSPropertyOp9
 70
     1
102
RTVSPropertyOp10
 70
     1
102
RTVSPropertyOp11
 70
     1
102
RTVSPropertyOp12
 70
     1
102
RTVSPropertyOp13
 70
     1
102
RTVSPropertyOp14
 70
     1
102
RTVSPropertyOp15
 70
     1
102
RTVSPropertyOp16
 70
     1
102
RTVSPropertyOp17
 70
     1
102
RTVSPropertyOp18
 70
     1
102
RTVSPropertyOp19
 70
     1
102
RTVSPropertyOp20
 70
     1
102
RTVSPropertyOp21
 70
     1
102
RTVSPropertyOp22
 70
     1
102
RTVSPropertyOp23
 70
     1
102
RTVSPropertyOp24
 70
     1
102
RTVSPropertyOp25
 70
     1
102
RTVSPropertyOp26
 70
     1
102
RTVSPropertyOp27
 70
     1
102
RTVSPropertyOp28
 70
     1
102
RTVSPropertyOp29
 70
     1
102
RTVSPropertyOp30
 70
     1
102
RTVSPropertyOp31
 70
     1
102
RTVSPropertyOp32
 70
     1
  0
XRECORD
  5
7AD
102
{ACAD_REACTORS
330
7AC
102
}
330
7AC
100
AcDbXrecord
280
     1
102
RTVSPropertyOp0
 70
     1
102
RTVSPropertyOp1
 70
     1
102
RTVSPropertyOp2
 70
     1
102
RTVSPropertyOp3
 70
     1
102
RTVSPropertyOp4
 70
     1
102
RTVSPropertyOp5
 70
     1
102
RTVSPropertyOp6
 70
     1
102
RTVSPropertyOp7
 70
     1
102
RTVSPropertyOp8
 70
     1
102
RTVSPropertyOp9
 70
     1
102
RTVSPropertyOp10
 70
     1
102
RTVSPropertyOp11
 70
     1
102
RTVSPropertyOp12
 70
     1
102
RTVSPropertyOp13
 70
     1
102
RTVSPropertyOp14
 70
     1
102
RTVSPropertyOp15
 70
     1
102
RTVSPropertyOp16
 70
     1
102
RTVSPropertyOp17
 70
     1
102
RTVSPropertyOp18
 70
     1
102
RTVSPropertyOp19
 70
     1
102
RTVSPropertyOp20
 70
     1
102
RTVSPropertyOp21
 70
     1
102
RTVSPropertyOp22
 70
     1
102
RTVSPropertyOp23
 70
     1
102
RTVSPropertyOp24
 70
     1
102
RTVSPropertyOp25
 70
     1
102
RTVSPropertyOp26
 70
     1
102
RTVSPropertyOp27
 70
     1
102
RTVSPropertyOp28
 70
     1
102
RTVSPropertyOp29
 70
     1
102
RTVSPropertyOp30
 70
     1
102
RTVSPropertyOp31
 70
     1
102
RTVSPropertyOp32
 70
     1
  0
XRECORD
  5
7AF
102
{ACAD_REACTORS
330
7AE
102
}
330
7AE
100
AcDbXrecord
280
     1
102
RTVSPropertyOp0
 70
     1
102
RTVSPropertyOp1
 70
     1
102
RTVSPropertyOp2
 70
     1
102
RTVSPropertyOp3
 70
     1
102
RTVSPropertyOp4
 70
     1
102
RTVSPropertyOp5
 70
     1
102
RTVSPropertyOp6
 70
     1
102
RTVSPropertyOp7
 70
     1
102
RTVSPropertyOp8
 70
     1
102
RTVSPropertyOp9
 70
     1
102
RTVSPropertyOp10
 70
     1
102
RTVSPropertyOp11
 70
     1
102
RTVSPropertyOp12
 70
     1
102
RTVSPropertyOp13
 70
     1
102
RTVSPropertyOp14
 70
     1
102
RTVSPropertyOp15
 70
     1
102
RTVSPropertyOp16
 70
     1
102
RTVSPropertyOp17
 70
     1
102
RTVSPropertyOp18
 70
     1
102
RTVSPropertyOp19
 70
     1
102
RTVSPropertyOp20
 70
     1
102
RTVSPropertyOp21
 70
     1
102
RTVSPropertyOp22
 70
     1
102
RTVSPropertyOp23
 70
     1
102
RTVSPropertyOp24
 70
     1
102
RTVSPropertyOp25
 70
     1
102
RTVSPropertyOp26
 70
     1
102
RTVSPropertyOp27
 70
     1
102
RTVSPropertyOp28
 70
     1
102
RTVSPropertyOp29
 70
     1
102
RTVSPropertyOp30
 70
     1
102
RTVSPropertyOp31
 70
     1
102
RTVSPropertyOp32
 70
     1
  0
XRECORD
  5
7B7
102
{ACAD_REACTORS
330
7B6
102
}
330
7B6
100
AcDbXrecord
280
     1
102
RTVSPropertyOp0
 70
     1
102
RTVSPropertyOp1
 70
     1
102
RTVSPropertyOp2
 70
     1
102
RTVSPropertyOp3
 70
     1
102
RTVSPropertyOp4
 70
     1
102
RTVSPropertyOp5
 70
     1
102
RTVSPropertyOp6
 70
     1
102
RTVSPropertyOp7
 70
     1
102
RTVSPropertyOp8
 70
     1
102
RTVSPropertyOp9
 70
     1
102
RTVSPropertyOp10
 70
     1
102
RTVSPropertyOp11
 70
     1
102
RTVSPropertyOp12
 70
     1
102
RTVSPropertyOp13
 70
     1
102
RTVSPropertyOp14
 70
     1
102
RTVSPropertyOp15
 70
     1
102
RTVSPropertyOp16
 70
     1
102
RTVSPropertyOp17
 70
     1
102
RTVSPropertyOp18
 70
     1
102
RTVSPropertyOp19
 70
     1
102
RTVSPropertyOp20
 70
     1
102
RTVSPropertyOp21
 70
     1
102
RTVSPropertyOp22
 70
     1
102
RTVSPropertyOp23
 70
     1
102
RTVSPropertyOp24
 70
     1
102
RTVSPropertyOp25
 70
     1
102
RTVSPropertyOp26
 70
     1
102
RTVSPropertyOp27
 70
     1
102
RTVSPropertyOp28
 70
     1
102
RTVSPropertyOp29
 70
     1
102
RTVSPropertyOp30
 70
     1
102
RTVSPropertyOp31
 70
     1
102
RTVSPropertyOp32
 70
     1
  0
XRECORD
  5
79B
102
{ACAD_REACTORS
330
79A
102
}
330
79A
100
AcDbXrecord
280
     1
102
RTVSPropertyOp0
 70
     1
102
RTVSPropertyOp1
 70
     1
102
RTVSPropertyOp2
 70
     1
102
RTVSPropertyOp3
 70
     1
102
RTVSPropertyOp4
 70
     1
102
RTVSPropertyOp5
 70
     1
102
RTVSPropertyOp6
 70
     1
102
RTVSPropertyOp7
 70
     1
102
RTVSPropertyOp8
 70
     1
102
RTVSPropertyOp9
 70
     1
102
RTVSPropertyOp10
 70
     1
102
RTVSPropertyOp11
 70
     1
102
RTVSPropertyOp12
 70
     1
102
RTVSPropertyOp13
 70
     1
102
RTVSPropertyOp14
 70
     1
102
RTVSPropertyOp15
 70
     1
102
RTVSPropertyOp16
 70
     1
102
RTVSPropertyOp17
 70
     1
102
RTVSPropertyOp18
 70
     1
102
RTVSPropertyOp19
 70
     1
102
RTVSPropertyOp20
 70
     1
102
RTVSPropertyOp21
 70
     1
102
RTVSPropertyOp22
 70
     1
102
RTVSPropertyOp23
 70
     1
102
RTVSPropertyOp24
 70
     1
102
RTVSPropertyOp25
 70
     1
102
RTVSPropertyOp26
 70
     1
102
RTVSPropertyOp27
 70
     1
102
RTVSPropertyOp28
 70
     1
102
RTVSPropertyOp29
 70
     1
102
RTVSPropertyOp30
 70
     1
102
RTVSPropertyOp31
 70
     1
102
RTVSPropertyOp32
 70
     1
  0
XRECORD
  5
79D
102
{ACAD_REACTORS
330
79C
102
}
330
79C
100
AcDbXrecord
280
     1
102
RTVSPropertyOp0
 70
     1
102
RTVSPropertyOp1
 70
     1
102
RTVSPropertyOp2
 70
     1
102
RTVSPropertyOp3
 70
     1
102
RTVSPropertyOp4
 70
     1
102
RTVSPropertyOp5
 70
     1
102
RTVSPropertyOp6
 70
     1
102
RTVSPropertyOp7
 70
     1
102
RTVSPropertyOp8
 70
     1
102
RTVSPropertyOp9
 70
     1
102
RTVSPropertyOp10
 70
     1
102
RTVSPropertyOp11
 70
     1
102
RTVSPropertyOp12
 70
     1
102
RTVSPropertyOp13
 70
     1
102
RTVSPropertyOp14
 70
     1
102
RTVSPropertyOp15
 70
     1
102
RTVSPropertyOp16
 70
     1
102
RTVSPropertyOp17
 70
     1
102
RTVSPropertyOp18
 70
     1
102
RTVSPropertyOp19
 70
     1
102
RTVSPropertyOp20
 70
     1
102
RTVSPropertyOp21
 70
     1
102
RTVSPropertyOp22
 70
     1
102
RTVSPropertyOp23
 70
     1
102
RTVSPropertyOp24
 70
     1
102
RTVSPropertyOp25
 70
     1
102
RTVSPropertyOp26
 70
     1
102
RTVSPropertyOp27
 70
     1
102
RTVSPropertyOp28
 70
     1
102
RTVSPropertyOp29
 70
     1
102
RTVSPropertyOp30
 70
     1
102
RTVSPropertyOp31
 70
     1
102
RTVSPropertyOp32
 70
     1
  0
XRECORD
  5
79F
102
{ACAD_REACTORS
330
79E
102
}
330
79E
100
AcDbXrecord
280
     1
102
RTVSPropertyOp0
 70
     1
102
RTVSPropertyOp1
 70
     1
102
RTVSPropertyOp2
 70
     1
102
RTVSPropertyOp3
 70
     1
102
RTVSPropertyOp4
 70
     1
102
RTVSPropertyOp5
 70
     1
102
RTVSPropertyOp6
 70
     1
102
RTVSPropertyOp7
 70
     1
102
RTVSPropertyOp8
 70
     1
102
RTVSPropertyOp9
 70
     1
102
RTVSPropertyOp10
 70
     1
102
RTVSPropertyOp11
 70
     1
102
RTVSPropertyOp12
 70
     1
102
RTVSPropertyOp13
 70
     1
102
RTVSPropertyOp14
 70
     1
102
RTVSPropertyOp15
 70
     1
102
RTVSPropertyOp16
 70
     1
102
RTVSPropertyOp17
 70
     1
102
RTVSPropertyOp18
 70
     1
102
RTVSPropertyOp19
 70
     1
102
RTVSPropertyOp20
 70
     1
102
RTVSPropertyOp21
 70
     1
102
RTVSPropertyOp22
 70
     1
102
RTVSPropertyOp23
 70
     1
102
RTVSPropertyOp24
 70
     1
102
RTVSPropertyOp25
 70
     1
102
RTVSPropertyOp26
 70
     1
102
RTVSPropertyOp27
 70
     1
102
RTVSPropertyOp28
 70
     1
102
RTVSPropertyOp29
 70
     1
102
RTVSPropertyOp30
 70
     1
102
RTVSPropertyOp31
 70
     1
102
RTVSPropertyOp32
 70
     1
  0
XRECORD
  5
7A1
102
{ACAD_REACTORS
330
7A0
102
}
330
7A0
100
AcDbXrecord
280
     1
102
RTVSPropertyOp0
 70
     1
102
RTVSPropertyOp1
 70
     1
102
RTVSPropertyOp2
 70
     1
102
RTVSPropertyOp3
 70
     1
102
RTVSPropertyOp4
 70
     1
102
RTVSPropertyOp5
 70
     1
102
RTVSPropertyOp6
 70
     1
102
RTVSPropertyOp7
 70
     1
102
RTVSPropertyOp8
 70
     1
102
RTVSPropertyOp9
 70
     1
102
RTVSPropertyOp10
 70
     1
102
RTVSPropertyOp11
 70
     1
102
RTVSPropertyOp12
 70
     1
102
RTVSPropertyOp13
 70
     1
102
RTVSPropertyOp14
 70
     1
102
RTVSPropertyOp15
 70
     1
102
RTVSPropertyOp16
 70
     1
102
RTVSPropertyOp17
 70
     1
102
RTVSPropertyOp18
 70
     1
102
RTVSPropertyOp19
 70
     1
102
RTVSPropertyOp20
 70
     1
102
RTVSPropertyOp21
 70
     1
102
RTVSPropertyOp22
 70
     1
102
RTVSPropertyOp23
 70
     1
102
RTVSPropertyOp24
 70
     1
102
RTVSPropertyOp25
 70
     1
102
RTVSPropertyOp26
 70
     1
102
RTVSPropertyOp27
 70
     1
102
RTVSPropertyOp28
 70
     1
102
RTVSPropertyOp29
 70
     1
102
RTVSPropertyOp30
 70
     1
102
RTVSPropertyOp31
 70
     1
102
RTVSPropertyOp32
 70
     1
  0
XRECORD
  5
7B5
102
{ACAD_REACTORS
330
7B4
102
}
330
7B4
100
AcDbXrecord
280
     1
102
RTVSPropertyOp0
 70
     1
102
RTVSPropertyOp1
 70
     1
102
RTVSPropertyOp2
 70
     1
102
RTVSPropertyOp3
 70
     1
102
RTVSPropertyOp4
 70
     1
102
RTVSPropertyOp5
 70
     1
102
RTVSPropertyOp6
 70
     1
102
RTVSPropertyOp7
 70
     1
102
RTVSPropertyOp8
 70
     1
102
RTVSPropertyOp9
 70
     1
102
RTVSPropertyOp10
 70
     1
102
RTVSPropertyOp11
 70
     1
102
RTVSPropertyOp12
 70
     1
102
RTVSPropertyOp13
 70
     1
102
RTVSPropertyOp14
 70
     1
102
RTVSPropertyOp15
 70
     1
102
RTVSPropertyOp16
 70
     1
102
RTVSPropertyOp17
 70
     1
102
RTVSPropertyOp18
 70
     1
102
RTVSPropertyOp19
 70
     1
102
RTVSPropertyOp20
 70
     1
102
RTVSPropertyOp21
 70
     1
102
RTVSPropertyOp22
 70
     1
102
RTVSPropertyOp23
 70
     1
102
RTVSPropertyOp24
 70
     1
102
RTVSPropertyOp25
 70
     1
102
RTVSPropertyOp26
 70
     1
102
RTVSPropertyOp27
 70
     1
102
RTVSPropertyOp28
 70
     1
102
RTVSPropertyOp29
 70
     1
102
RTVSPropertyOp30
 70
     1
102
RTVSPropertyOp31
 70
     1
102
RTVSPropertyOp32
 70
     1
  0
XRECORD
  5
7AB
102
{ACAD_REACTORS
330
7AA
102
}
330
7AA
100
AcDbXrecord
280
     1
102
RTVSPropertyOp0
 70
     1
102
RTVSPropertyOp1
 70
     1
102
RTVSPropertyOp2
 70
     1
102
RTVSPropertyOp3
 70
     1
102
RTVSPropertyOp4
 70
     1
102
RTVSPropertyOp5
 70
     1
102
RTVSPropertyOp6
 70
     1
102
RTVSPropertyOp7
 70
     1
102
RTVSPropertyOp8
 70
     1
102
RTVSPropertyOp9
 70
     1
102
RTVSPropertyOp10
 70
     1
102
RTVSPropertyOp11
 70
     1
102
RTVSPropertyOp12
 70
     1
102
RTVSPropertyOp13
 70
     1
102
RTVSPropertyOp14
 70
     1
102
RTVSPropertyOp15
 70
     1
102
RTVSPropertyOp16
 70
     1
102
RTVSPropertyOp17
 70
     1
102
RTVSPropertyOp18
 70
     1
102
RTVSPropertyOp19
 70
     1
102
RTVSPropertyOp20
 70
     1
102
RTVSPropertyOp21
 70
     1
102
RTVSPropertyOp22
 70
     1
102
RTVSPropertyOp23
 70
     1
102
RTVSPropertyOp24
 70
     1
102
RTVSPropertyOp25
 70
     1
102
RTVSPropertyOp26
 70
     1
102
RTVSPropertyOp27
 70
     1
102
RTVSPropertyOp28
 70
     1
102
RTVSPropertyOp29
 70
     1
102
RTVSPropertyOp30
 70
     1
102
RTVSPropertyOp31
 70
     1
102
RTVSPropertyOp32
 70
     1
  0
XRECORD
  5
7B3
102
{ACAD_REACTORS
330
7B2
102
}
330
7B2
100
AcDbXrecord
280
     1
102
RTVSPropertyOp0
 70
     1
102
RTVSPropertyOp1
 70
     1
102
RTVSPropertyOp2
 70
     1
102
RTVSPropertyOp3
 70
     1
102
RTVSPropertyOp4
 70
     1
102
RTVSPropertyOp5
 70
     1
102
RTVSPropertyOp6
 70
     1
102
RTVSPropertyOp7
 70
     1
102
RTVSPropertyOp8
 70
     1
102
RTVSPropertyOp9
 70
     1
102
RTVSPropertyOp10
 70
     1
102
RTVSPropertyOp11
 70
     1
102
RTVSPropertyOp12
 70
     1
102
RTVSPropertyOp13
 70
     1
102
RTVSPropertyOp14
 70
     1
102
RTVSPropertyOp15
 70
     1
102
RTVSPropertyOp16
 70
     1
102
RTVSPropertyOp17
 70
     1
102
RTVSPropertyOp18
 70
     1
102
RTVSPropertyOp19
 70
     1
102
RTVSPropertyOp20
 70
     1
102
RTVSPropertyOp21
 70
     1
102
RTVSPropertyOp22
 70
     1
102
RTVSPropertyOp23
 70
     1
102
RTVSPropertyOp24
 70
     1
102
RTVSPropertyOp25
 70
     1
102
RTVSPropertyOp26
 70
     1
102
RTVSPropertyOp27
 70
     1
102
RTVSPropertyOp28
 70
     1
102
RTVSPropertyOp29
 70
     1
102
RTVSPropertyOp30
 70
     1
102
RTVSPropertyOp31
 70
     1
102
RTVSPropertyOp32
 70
     1
  0
ENDSEC
  0
EOF
